[ Сегодня на трекере фрилич! Идет свободное скачивание без начисления Download ]

DJ Bobo - Circus (2014) [FLAC|Lossless]<Europop, Eurodance>

 

Создавать темы 17-Дек-2014 11:52

-DJ Bobo - Circus (2014)- Год: 2014
Жанр: Europop, Eurodance
Лейбл: Yes Music
Каталог #: YES 2073
Продолжительность: 00:40:09-Кодек: FLAC
Тип рипа: tracks + .cue
Битрейт: Lossless-Треклист:
01. Are You Ready To Party (3:07)
02. Good Life (3:37)
03. Fiesta Loca (2:51)
04. Welcome To My Crazy Circus (3:26)
05. For Once In My Life (3:33)
06. Try Try Try (3:07)
07. Summertime (3:36)
08. The Soundtrack Of Our Lives (3:33)
09. Fly With Me (3:23)
10. Born To Love You (3:30)
11. Volare (3:00)
12. Love Is Killing Me (3:26)-

Отчёт ЕАС&#58;

Exact Audio Copy V1.0 beta 3 from 29. August 2011
EAC extraction logfile from 31. January 2014, 21:47
DJ. Bobo / Circus
Used drive  : PLEXTOR DVDR   PX-891SA   Adapter: 0  ID: 4
Read mode               : Secure
Utilize accurate stream : Yes
Defeat audio cache      : Yes
Make use of C2 pointers : No
Read offset correction                      : 6
Overread into Lead-In and Lead-Out          : No
Fill up missing offset samples with silence : Yes
Delete leading and trailing silent blocks   : No
Null samples used in CRC calculations       : Yes
Used interface                              : Native Win32 interface for Win NT & 2000
Gap handling                                : Appended to previous track
Used output format              : User Defined Encoder
Selected bitrate                : 1024 kBit/s
Quality                         : High
Add ID3 tag                     : No
Command line compressor         : C:\Program Files (x86)\Exact Audio Copy\FLAC\FLAC.EXE
Additional command line options : -0 -V -T "ARTIST=%artist%" -T "TITLE=%title%" -T "ALBUM=%albumtitle%" -T "DATE=%year%" -T "TRACKNUMBER=%tracknr%" -T "TOTALTRACKS=%numtracks%" -T "GENRE=%genre%" -T "COMMENT=Naftamusic Release!" %source%
TOC of the extracted CD
     Track |   Start  |  Length  | Start sector | End sector
    ---------------------------------------------------------
        1  |  0:00.00 |  3:06.69 |         0    |    14018
        2  |  3:06.69 |  3:37.25 |     14019    |    30318
        3  |  6:44.19 |  2:51.25 |     30319    |    43168
        4  |  9:35.44 |  3:25.53 |     43169    |    58596
        5  | 13:01.22 |  3:32.42 |     58597    |    74538
        6  | 16:33.64 |  3:07.19 |     74539    |    88582
        7  | 19:41.08 |  3:36.02 |     88583    |   104784
        8  | 23:17.10 |  3:33.02 |    104785    |   120761
        9  | 26:50.12 |  3:22.43 |    120762    |   135954
       10  | 30:12.55 |  3:30.13 |    135955    |   151717
       11  | 33:42.68 |  2:59.45 |    151718    |   165187
       12  | 36:42.38 |  3:26.26 |    165188    |   180663
Track  1
     Filename F:\Nafta Releases\DJ. Bobo - Circus (2014)[FLAC] - Naftamusic\01 - Are You Ready To Party.wav
     Pre-gap length  0:00:02.00
     Peak level 98.2 %
     Extraction speed 3.9 X
     Track quality 99.9 %
     Test CRC 4E5950A8
     Copy CRC 4E5950A8
     Track not present in AccurateRip database
     Copy OK
Track  2
     Filename F:\Nafta Releases\DJ. Bobo - Circus (2014)[FLAC] - Naftamusic\02 - Good Life.wav
     Peak level 98.2 %
     Extraction speed 5.6 X
     Track quality 100.0 %
     Test CRC FB23BB52
     Copy CRC FB23BB52
     Track not present in AccurateRip database
     Copy OK
Track  3
     Filename F:\Nafta Releases\DJ. Bobo - Circus (2014)[FLAC] - Naftamusic\03 - Fiesta Loca.wav
     Peak level 98.2 %
     Extraction speed 4.5 X
     Track quality 99.9 %
     Test CRC 37FEA51B
     Copy CRC 37FEA51B
     Track not present in AccurateRip database
     Copy OK
Track  4
     Filename F:\Nafta Releases\DJ. Bobo - Circus (2014)[FLAC] - Naftamusic\04 - Welcome To My Crazy Circus.wav
     Peak level 98.2 %
     Extraction speed 6.4 X
     Track quality 100.0 %
     Test CRC 1E14FD4F
     Copy CRC 1E14FD4F
     Track not present in AccurateRip database
     Copy OK
Track  5
     Filename F:\Nafta Releases\DJ. Bobo - Circus (2014)[FLAC] - Naftamusic\05 - For Once In My Life.wav
     Peak level 98.2 %
     Extraction speed 6.8 X
     Track quality 100.0 %
     Test CRC 0B945519
     Copy CRC 0B945519
     Track not present in AccurateRip database
     Copy OK
Track  6
     Filename F:\Nafta Releases\DJ. Bobo - Circus (2014)[FLAC] - Naftamusic\06 - Try Try Try.wav
     Peak level 98.2 %
     Extraction speed 5.5 X
     Track quality 99.9 %
     Test CRC 71D99111
     Copy CRC 71D99111
     Track not present in AccurateRip database
     Copy OK
Track  7
     Filename F:\Nafta Releases\DJ. Bobo - Circus (2014)[FLAC] - Naftamusic\07 - Summertime.wav
     Peak level 98.2 %
     Extraction speed 7.5 X
     Track quality 100.0 %
     Test CRC 339ECF72
     Copy CRC 339ECF72
     Track not present in AccurateRip database
     Copy OK
Track  8
     Filename F:\Nafta Releases\DJ. Bobo - Circus (2014)[FLAC] - Naftamusic\08 - The Soundtrack Of Our Lives.wav
     Peak level 98.2 %
     Extraction speed 7.8 X
     Track quality 100.0 %
     Test CRC 5D4D0681
     Copy CRC 5D4D0681
     Track not present in AccurateRip database
     Copy OK
Track  9
     Filename F:\Nafta Releases\DJ. Bobo - Circus (2014)[FLAC] - Naftamusic\09 - Fly With Me.wav
     Peak level 98.2 %
     Extraction speed 8.1 X
     Track quality 100.0 %
     Test CRC 0C952E8A
     Copy CRC 0C952E8A
     Track not present in AccurateRip database
     Copy OK
Track 10
     Filename F:\Nafta Releases\DJ. Bobo - Circus (2014)[FLAC] - Naftamusic\10 - Born To Love You.wav
     Peak level 98.2 %
     Extraction speed 6.8 X
     Track quality 99.9 %
     Test CRC 6B947F48
     Copy CRC 6B947F48
     Track not present in AccurateRip database
     Copy OK
Track 11
     Filename F:\Nafta Releases\DJ. Bobo - Circus (2014)[FLAC] - Naftamusic\11 - Volare.wav
     Peak level 98.2 %
     Extraction speed 6.6 X
     Track quality 99.9 %
     Test CRC DF5CF69A
     Copy CRC DF5CF69A
     Track not present in AccurateRip database
     Copy OK
Track 12
     Filename F:\Nafta Releases\DJ. Bobo - Circus (2014)[FLAC] - Naftamusic\12 - Love Is Killing Me.wav
     Peak level 98.2 %
     Extraction speed 8.9 X
     Track quality 100.0 %
     Test CRC 019F7592
     Copy CRC 019F7592
     Track not present in AccurateRip database
     Copy OK
None of the tracks are present in the AccurateRip database
No errors occurred
End of status report
==== Log checksum 68B132BD2464B35B4F6E27D17C5383E3165AA5525F1EE8DA5FC872BE5516C6A6 ====

Отчёт auCDtect Task manager&#58;

-----------------------
DON'T MODIFY THIS FILE
-----------------------
PERFORMER: auCDtect Task Manager, ver. 1.6.0 RC1 build 1.6.0.1
Copyright (c) 2008-2010 y-soft. All rights reserved
http://y-soft.org
ANALYZER: auCDtect: CD records authenticity detector, version 0.8.2
Copyright (c) 2004 Oleg Berngardt. All rights reserved.
Copyright (c) 2004 Alexander Djourik. All rights reserved.
FILE: 07. Summertime.flac
  Size: 30650310 Hash: 485D1E4EF30AC4B790721F57A7DA7C3A Accuracy: -m0
  Conclusion: CDDA 100%
  Signature: 5AA301728A428E90B62A954EB46E6DBE3FA7C8CC
FILE: 06. Try Try Try.flac
  Size: 26562598 Hash: AB9891FCEB875167F03713DC1AA3CA25 Accuracy: -m0
  Conclusion: CDDA 100%
  Signature: 87C3273E2E98A6F8C53F5C93F0A4B498BC2732FF
FILE: 05. For Once In My Life.flac
  Size: 26687083 Hash: F819A738ACA48D88593A96F8F047ED89 Accuracy: -m0
  Conclusion: MPEG 95%
  Signature: B794A499A48B2E8F9F64CD0121D30E625AAE37D2
FILE: 04. Welcome To My Crazy Circus.flac
  Size: 28579765 Hash: DB30613AEEF4D403C762932C1546EA5C Accuracy: -m0
  Conclusion: CDDA 100%
  Signature: 8D964DA890E35EEDE52BC852E5E63D7DE1EB2D81
FILE: 03. Fiesta Loca.flac
  Size: 25616375 Hash: 376BBEB7D6973F2D7B7D172B84E84CC1 Accuracy: -m0
  Conclusion: CDDA 99%
  Signature: BD33B3EFD6D194A2C5DAD21122474BC620296114
FILE: 02. Good Life.flac
  Size: 32377891 Hash: F5FD07E80DCEE8FF0E7FF52B2ADF2099 Accuracy: -m0
  Conclusion: CDDA 100%
  Signature: A4C5BFB758A42ECC01EC276E975F807E0CB5EAFA
FILE: 01. Are You Ready To Party.flac
  Size: 27787352 Hash: C835DF2DB1D9564B6DA31D259E6EE1E0 Accuracy: -m0
  Conclusion: MPEG 95%
  Signature: 092733288AC8C058AAF1173C089092116DF294D6
FILE: 12. Love Is Killing Me.flac
  Size: 30130160 Hash: B3E9CA5530C46ECF402878241A58412B Accuracy: -m0
  Conclusion: CDDA 100%
  Signature: DC2C4A1CB4EA8CD5C4386DFDF1309DD17E44D100
FILE: 11. Volare.flac
  Size: 24644531 Hash: 295E8F17EA0657013209FFE3B1698D94 Accuracy: -m0
  Conclusion: MPEG 95%
  Signature: F9885BE741382A4F2C5B911C81C334D426BA39E4
FILE: 10. Born To Love You.flac
  Size: 27685367 Hash: 6E4ECB1A6AECE7F453819F6E7BBB83CC Accuracy: -m0
  Conclusion: MPEG 79%
  Signature: 885969F10F35554216741E0289C92B78AA1C6B92
FILE: 09. Fly With Me.flac
  Size: 26532052 Hash: C671CD28CC1BDA48773ECAB0623F91A0 Accuracy: -m0
  Conclusion: CDDA 100%
  Signature: D988112ADB3C34BABEC6C14EB7241B7F86816DC0
FILE: 08. The Soundtrack Of Our Lives.flac
  Size: 30723292 Hash: 6C4F8AB28402F379404E55056A4D239E Accuracy: -m0
  Conclusion: CDDA 100%
  Signature: BF4AC80D78954FB138A12860DFCC62E70AF110B9

Содержание индексной карты (.CUE&#41;

REM GENRE Eurodance
REM DATE 2014
REM COMMENT "Naftamusic Release!"
PERFORMER "DJ. Bobo"
TITLE Circus
FILE "01. Are You Ready To Party.flac" WAVE
  TRACK 01 AUDIO
    TITLE "Are You Ready To Party"
    PERFORMER "DJ. Bobo"
    INDEX 01 00:00:00
FILE "02. Good Life.flac" WAVE
  TRACK 02 AUDIO
    TITLE "Good Life"
    PERFORMER "DJ. Bobo"
    INDEX 01 00:00:00
FILE "03. Fiesta Loca.flac" WAVE
  TRACK 03 AUDIO
    TITLE "Fiesta Loca"
    PERFORMER "DJ. Bobo"
    INDEX 01 00:00:00
FILE "04. Welcome To My Crazy Circus.flac" WAVE
  TRACK 04 AUDIO
    TITLE "Welcome To My Crazy Circus"
    PERFORMER "DJ. Bobo"
    INDEX 01 00:00:00
FILE "05. For Once In My Life.flac" WAVE
  TRACK 05 AUDIO
    TITLE "For Once In My Life"
    PERFORMER "DJ. Bobo"
    INDEX 01 00:00:00
FILE "06. Try Try Try.flac" WAVE
  TRACK 06 AUDIO
    TITLE "Try Try Try"
    PERFORMER "DJ. Bobo"
    INDEX 01 00:00:00
FILE "07. Summertime.flac" WAVE
  TRACK 07 AUDIO
    TITLE Summertime
    PERFORMER "DJ. Bobo"
    INDEX 01 00:00:00
FILE "08. The Soundtrack Of Our Lives.flac" WAVE
  TRACK 08 AUDIO
    TITLE "The Soundtrack Of Our Lives"
    PERFORMER "DJ. Bobo"
    INDEX 01 00:00:00
FILE "09. Fly With Me.flac" WAVE
  TRACK 09 AUDIO
    TITLE "Fly With Me"
    PERFORMER "DJ. Bobo"
    INDEX 01 00:00:00
FILE "10. Born To Love You.flac" WAVE
  TRACK 10 AUDIO
    TITLE "Born To Love You"
    PERFORMER "DJ. Bobo"
    INDEX 01 00:00:00
FILE "11. Volare.flac" WAVE
  TRACK 11 AUDIO
    TITLE Volare
    PERFORMER "DJ. Bobo"
    INDEX 01 00:00:00
FILE "12. Love Is Killing Me.flac" WAVE
  TRACK 12 AUDIO
    TITLE "Love Is Killing Me"
    PERFORMER "DJ. Bobo"
    INDEX 01 00:00:00

Сверка с АккуратРип

[CUETools log; Date: 03.02.2014 22:30:59; Version: 2.1.4]
[CTDB TOCID: sNfOOY7eYa_Q_aZAmFDUWHW0kR8-] found.
Track | CTDB Status
  1   | (2/2) Accurately ripped
  2   | (2/2) Accurately ripped
  3   | (2/2) Accurately ripped
  4   | (2/2) Accurately ripped
  5   | (2/2) Accurately ripped
  6   | (2/2) Accurately ripped
  7   | (2/2) Accurately ripped
  8   | (2/2) Accurately ripped
  9   | (2/2) Accurately ripped
10   | (2/2) Accurately ripped
11   | (2/2) Accurately ripped
12   | (2/2) Accurately ripped
[AccurateRip ID: 0011d3aa-00a6e07e-a409680c] disk not present in database.
Track Peak [ CRC32  ] [W/O NULL] [  LOG   ]
--   98,2 [1EC2DF4E] [AA01CC0C]
01   98,2 [4E5950A8] [861E364D]   CRC32
02   98,2 [FB23BB52] [46F999A5]   CRC32
03   98,2 [37FEA51B] [B1440081]   CRC32
04   98,2 [1E14FD4F] [70B489AE]   CRC32
05   98,2 [0B945519] [1EBDF7EA]   CRC32
06   98,2 [71D99111] [EAFAEFCB]   CRC32
07   98,2 [339ECF72] [70BA56A4]   CRC32
08   98,2 [5D4D0681] [93AD4683]   CRC32
09   98,2 [0C952E8A] [D5C4515E]   CRC32
10   98,2 [6B947F48] [406F9AF7]   CRC32
11   98,2 [DF5CF69A] [1EE95EC5]   CRC32
12   98,2 [019F7592] [29AB096F]   CRC32
Время раздачи: 24/7 (круглосуточно)
Яндекс.Метрика
Рейтинг@Mail.ru