Animal X - Animal X (2000) [FLAC|Lossless]<Electronic, Dance>

 

Создавать темы 17-Дек-2014 11:52

-Animal X - Animal X (2000)- Год: 2000
Жанр: Electronic, Dance
Лейбл: Nova Music
Каталог #: NM 133-2
Продолжительность: 00:24:11-Кодек: FLAC
Тип рипа: tracks + .cue
Битрейт: Lossless-Треклист:
01. N-Am Crezut (4:08)
02. Fara Rivali (3:41)
03. Sex (4:10)
04. Animal X (3:58)
05. Creatorul (4:07)
06. Iubirea Mea (4:08)-

Отчёт ЕАС&#58;

Exact Audio Copy V0.99 prebeta 5 from 4. May 2009
EAC extraction logfile from 7. February 2012, 16:32
Animal X / Animal X
Used drive  : ASUS    DRW-24B1LT   Adapter: 1  ID: 0
Read mode               : Secure
Utilize accurate stream : Yes
Defeat audio cache      : Yes
Make use of C2 pointers : No
Read offset correction                      : 6
Overread into Lead-In and Lead-Out          : No
Fill up missing offset samples with silence : Yes
Delete leading and trailing silent blocks   : No
Null samples used in CRC calculations       : Yes
Used interface                              : Native Win32 interface for Win NT & 2000
Gap handling                                : Appended to previous track
Used output format              : User Defined Encoder
Selected bitrate                : 320 kBit/s
Quality                         : High
Add ID3 tag                     : No
Command line compressor         : C:\Program Files (x86)\Exact Audio Copy\Flac\flac.exe
Additional command line options : -V -8 -T "artist=%a" -T "title=%t" -T "album=%g" -T "date=%y" -T "tracknumber=%n" -T "genre=%m" -T "comment=http://music-torrents.ro" %s
TOC of the extracted CD
     Track |   Start  |  Length  | Start sector | End sector
    ---------------------------------------------------------
        1  |  0:00.01 |  4:07.44 |         1    |    18569
        2  |  4:07.45 |  3:41.22 |     18570    |    35166
        3  |  7:48.67 |  4:09.51 |     35167    |    53892
        4  | 11:58.43 |  3:57.71 |     53893    |    71738
        5  | 15:56.39 |  4:06.57 |     71739    |    90245
        6  | 20:03.21 |  4:07.39 |     90246    |   108809
Track  1
     Filename E:\EAC_rips_4_MT\Animal X_-_Animal X-Retail-2000-LOSSLESS-MiNT\01-Animal_X_-_N-am_crezut.wav
     Pre-gap length  0:00:02.01
     Peak level 100.0 %
     Track quality 100.0 %
     Test CRC 36ADB2EB
     Copy CRC 36ADB2EB
     Track not present in AccurateRip database
     Copy OK
Track  2
     Filename E:\EAC_rips_4_MT\Animal X_-_Animal X-Retail-2000-LOSSLESS-MiNT\02-Animal_X_-_Fara_rivali.wav
     Peak level 100.0 %
     Track quality 100.0 %
     Test CRC A311D5B9
     Copy CRC A311D5B9
     Track not present in AccurateRip database
     Copy OK
Track  3
     Filename E:\EAC_rips_4_MT\Animal X_-_Animal X-Retail-2000-LOSSLESS-MiNT\03-Animal_X_-_Sex.wav
     Peak level 100.0 %
     Track quality 100.0 %
     Test CRC E868AC36
     Copy CRC E868AC36
     Track not present in AccurateRip database
     Copy OK
Track  4
     Filename E:\EAC_rips_4_MT\Animal X_-_Animal X-Retail-2000-LOSSLESS-MiNT\04-Animal_X_-_Animal_X.wav
     Peak level 100.0 %
     Track quality 100.0 %
     Test CRC 512A5172
     Copy CRC 512A5172
     Track not present in AccurateRip database
     Copy OK
Track  5
     Filename E:\EAC_rips_4_MT\Animal X_-_Animal X-Retail-2000-LOSSLESS-MiNT\05-Animal_X_-_Creatorul.wav
     Peak level 100.0 %
     Track quality 100.0 %
     Test CRC A0DEB872
     Copy CRC A0DEB872
     Track not present in AccurateRip database
     Copy OK
Track  6
     Filename E:\EAC_rips_4_MT\Animal X_-_Animal X-Retail-2000-LOSSLESS-MiNT\06-Animal_X_-_Iubirea_mea.wav
     Peak level 100.0 %
     Track quality 100.0 %
     Test CRC 5AF100C8
     Copy CRC 5AF100C8
     Track not present in AccurateRip database
     Copy OK
None of the tracks are present in the AccurateRip database
No errors occurred
End of status report

Отчёт auCDtect Task manager&#58;

-----------------------
DON'T MODIFY THIS FILE
-----------------------
PERFORMER: auCDtect Task Manager, ver. 1.6.0 RC1 build 1.6.0.1
Copyright (c) 2008-2010 y-soft. All rights reserved
http://y-soft.org
ANALYZER: auCDtect: CD records authenticity detector, version 0.8.2
Copyright (c) 2004 Oleg Berngardt. All rights reserved.
Copyright (c) 2004 Alexander Djourik. All rights reserved.
FILE: 04. Animal X.flac
  Size: 28734133 Hash: FACB73080BFB377366E419141821787D Accuracy: -m0
  Conclusion: CDDA 100%
  Signature: AB4ED5BAE183EA578DC436B0CFCF66C18F0170EA
FILE: 03. Sex.flac
  Size: 32690488 Hash: 46CF29A0592D935E76E43B9FC6B5B931 Accuracy: -m0
  Conclusion: CDDA 100%
  Signature: AE6C29EC3E7C15E90C4F2F863337A4FF345C422D
FILE: 02. Fara Rivali.flac
  Size: 26603467 Hash: DDB5BF87AB5C6F12109FFED93B9CD678 Accuracy: -m0
  Conclusion: CDDA 100%
  Signature: 5E662139A8541DB60656BAB8EC5673EF23F815E5
FILE: 01. N-Am Crezut.flac
  Size: 31639365 Hash: 7A61C6E73455B8D84265264CB9DE1A85 Accuracy: -m0
  Conclusion: CDDA 100%
  Signature: D47FB7072B335223407F940DECB920EEC71B81A8
FILE: 06. Iubirea Mea.flac
  Size: 29206665 Hash: B27DF6CE7A3EA0C78CAA151840F9C8E4 Accuracy: -m0
  Conclusion: CDDA 100%
  Signature: D8AD25F340F7491AFE9BEE9850209CBB51C46FF3
FILE: 05. Creatorul.flac
  Size: 29607213 Hash: 79E72CD61AB9EA7A32E045E23C75A08A Accuracy: -m0
  Conclusion: MPEG 95%
  Signature: 52DFE01B113C605CFEF083AE752BFD9BD739C12A

Содержание индексной карты (.CUE&#41;

REM GENRE Electronic
REM DATE 2000
REM DISCID 4305AA06
PERFORMER "Animal X"
TITLE "Animal X"
FILE "01. N-Am Crezut.flac" WAVE
  TRACK 01 AUDIO
    TITLE "N-Am Crezut"
    PERFORMER "Animal X"
    INDEX 01 00:00:00
FILE "02. Fara Rivali.flac" WAVE
  TRACK 02 AUDIO
    TITLE "Fara Rivali"
    PERFORMER "Animal X"
    INDEX 01 00:00:00
FILE "03. Sex.flac" WAVE
  TRACK 03 AUDIO
    TITLE Sex
    PERFORMER "Animal X"
    INDEX 01 00:00:00
FILE "04. Animal X.flac" WAVE
  TRACK 04 AUDIO
    TITLE "Animal X"
    PERFORMER "Animal X"
    INDEX 01 00:00:00
FILE "05. Creatorul.flac" WAVE
  TRACK 05 AUDIO
    TITLE Creatorul
    PERFORMER "Animal X"
    INDEX 01 00:00:00
FILE "06. Iubirea Mea.flac" WAVE
  TRACK 06 AUDIO
    TITLE "Iubirea Mea"
    PERFORMER "Animal X"
    INDEX 01 00:00:00
-
Яндекс.Метрика
Рейтинг@Mail.ru