[ Сегодня на трекере фрилич! Идет свободное скачивание без начисления Download ]

VA - Fun Radio: Fun Dancefloor Spring (2014) [FLAC|Lossless]<Dance-Floor, Club, House>

 

Создавать темы 17-Дек-2014 11:52

-VA - Fun Radio: Fun Dancefloor Spring (2014)-- Год: 2014
Жанр: Dance-Floor, Club, House
Лейбл: SMART\Sony Music
Каталог#: 888 430466524
Продолжительность: 02:23:24
Кодек: FLAC
Битрейт: Lossless
Тип рипа: tracks+cue
--
CD 1. Треклист:

01. Faul & Wad Ad vs Pnau - Changes (Radio Mix) (03:20)
02. Dimitri Vegas & Like Mike vs DVBBS & Borgeous - Stampede (Original Edit) (02:56)
03. Ahzee - Born Again (03:21)
04. Tony Junior - Twerk Anthem (Radio Edit) (02:54)
05. Deorro - Yee (Radio Edit) (02:49)
06. Martin Garrix & Jay Hardway - Wizard (Radio Edit) (03:22)
07. Tiesto - Red Light (Radio Edit) (03:21)
08. Fatboy Slim & Riva Starr Feat. Beardyman - Eat Sleep Rave Repeat (03:19)
09. Maitre Gims - Zombie (04:04)
10. Stromae - Tous Les Memes (03:31)
11. The Shin Sekai - Du Berceau Au Linceul (04:04)
12. Cotpit - Out Of Time (03:11)
13. DJ Assad Feat. Papi Sanchez & Luyanna (Tropical Family) - Enamorame (Oui Bebe) (Radio Edit) (03:21)
14. Flavel & Neto Feat. Speed - Vai Dancar (03:19)
15. Al'Varela - Sueno Caliente (French Version) (03:33)
16. Lylloo Feat. Jessy Matador - Echo (Radio Edit) (03:26)
17. Line Up & Manuella - Love Is Not A Game (03:32)
18. Underskorr - Be Together (Original Mix Edit) (03:17)
19. TSM - Timelapse (Radio Edit) (02:50)
20. Benjamin Braxton - Time (English Radio Edit) (03:08)
21. Eva Torres Feat. Rafael Battistuzzi - Dilemme (Radio Edit) (02:46)

Продолжительность:01:09:32--

Отчет auCDtect Task manager&#58;

-----------------------
DON'T MODIFY THIS FILE
-----------------------
PERFORMER: auCDtect Task Manager, ver. 1.6.0 RC1 build 1.6.0.1
Copyright (c) 2008-2010 y-soft. All rights reserved
http://y-soft.org
ANALYZER: auCDtect: CD records authenticity detector, version 0.8.2
Copyright (c) 2004 Oleg Berngardt. All rights reserved.
Copyright (c) 2004 Alexander Djourik. All rights reserved.
FILE: 21. Eva Torres Feat. Rafael Battistuzzi - Dilemme (Radio Edit).flac
  Size: 22715874 Hash: B15C77FC97B0F5D7F2E08E67D2C902E1 Accuracy: -m0
  Conclusion: CDDA 100%
  Signature: D8AFD5B7F5A6A797B259BB6F1A658D1245D59474
FILE: 20. Benjamin Braxton - Time (English Radio Edit).flac
  Size: 26941701 Hash: 2CFB00F5D36ACE2236A4D9CB5ABA5A08 Accuracy: -m0
  Conclusion: CDDA 100%
  Signature: C3C0C9988B71D03978DF0A1A7CCDB21D50FE1AE6
FILE: 19. TSM - Timelapse (Radio Edit).flac
  Size: 23501877 Hash: EB9ABECC02185B91B191D18FB03FCEC8 Accuracy: -m0
  Conclusion: CDDA 100%
  Signature: 907EABABEE712FCCFDA7D490EA89E4A979E8358D
FILE: 18. Underskorr - Be Together (Original Mix Edit).flac
  Size: 27381539 Hash: 7D079CBD6B91A25CE5DBFF9AE496D705 Accuracy: -m0
  Conclusion: CDDA 100%
  Signature: 481CEACB5850CCEECF8AC4517358164E29FB7443
FILE: 17. Line Up & Manuella - Love Is Not A Game.flac
  Size: 26062713 Hash: 37A00822F43080DB8128FE32CAEFEA07 Accuracy: -m0
  Conclusion: CDDA 100%
  Signature: EEF9E43EA37A2569DDBA8FC2154D7B5A877AD5A5
FILE: 16. Lylloo Feat. Jessy Matador - Echo (Radio Edit).flac
  Size: 27499823 Hash: B8BD823C35CCFF74BCEA0F8D8C33EBD9 Accuracy: -m0
  Conclusion: CDDA 100%
  Signature: AAFD947BFF81D4EB59E7C0CADD6B582A24F76425
FILE: 15. Al'Varela - Sueno Caliente (French Version).flac
  Size: 28587101 Hash: 677D40EE2F709E1D3102DE67B203A501 Accuracy: -m0
  Conclusion: CDDA 99%
  Signature: CC19074F51A088E7CC6884483C761828F6E83892
FILE: 14. Flavel & Neto Feat. Speed - Vai Dançar.flac
  Size: 27898712 Hash: E2C8098B7121736463684D38750C5112 Accuracy: -m0
  Conclusion: CDDA 94%
  Signature: CA20737716D429300EFDE474336F3D6828B22780
FILE: 13. DJ Assad Feat. Papi Sanchez & Luyanna (Tropical Family) - Enamorame (Oui Bébé) (Radio Edit).flac
  Size: 27510660 Hash: B0258CA3D72C4923474B16D0AC4A0F10 Accuracy: -m0
  Conclusion: CDDA 100%
  Signature: 25794B4D8D65B8B6D9B87749BF12DE2B80ABCD50
FILE: 12. Cotpit - Out Of Time.flac
  Size: 25136714 Hash: 17AA025D5E65F0454DF75B140C0FD0E3 Accuracy: -m0
  Conclusion: CDDA 100%
  Signature: 17188CC85F50C70144AD0075A2CC5987A3EEBB64
FILE: 11. The Shin Sekaï - Du Berceau Au Linceul.flac
  Size: 29724458 Hash: 8C76F6805E74DB1A99FC16910D69979C Accuracy: -m0
  Conclusion: CDDA 100%
  Signature: 7B414D6387017A90E2575145371701E0F4E99883
FILE: 10. Stromae - Tous Les Mêmes.flac
  Size: 24584589 Hash: C4E688DACF6711AAB286BA0DB9D3777D Accuracy: -m0
  Conclusion: CDDA 100%
  Signature: D712718C507924D919DBB8945CFE2112E9ED47C6
FILE: 09. Maître Gims - Zombie.flac
  Size: 28170946 Hash: CFF53C4ED3C4FA0A390C48A68510090A Accuracy: -m0
  Conclusion: CDDA 100%
  Signature: D619A9B59DCE9D583DFE149AD0F5578347B7D86E
FILE: 08. Fatboy Slim & Riva Starr Feat. Beardyman - Eat Sleep Rave Repeat.flac
  Size: 27394679 Hash: 45EA0A624C038F887936BFA2DAB74CD9 Accuracy: -m0
  Conclusion: CDDA 100%
  Signature: A0D96AD7D4AE3E0D96160406A1D66E8C86D21078
FILE: 07. Tiësto - Red Light (Radio Edit).flac
  Size: 25547871 Hash: 29FA9521B37C5C442BB5DB564695DFCD Accuracy: -m0
  Conclusion: CDDA 100%
  Signature: 656BC15B5322EC29EC673F78CB22D934BF90B4E9
FILE: 06. Martin Garrix & Jay Hardway - Wizard (Radio Edit).flac
  Size: 26559636 Hash: 36BCF3F2CB52012B7666B6A61272C53E Accuracy: -m0
  Conclusion: CDDA 92%
  Signature: E110084556330A92C39422D209AB0B7ACBD507F9
FILE: 05. Deorro - Yee (Radio Edit).flac
  Size: 22656490 Hash: 5851A2E78F549451A72BC75276C98B02 Accuracy: -m0
  Conclusion: CDDA 100%
  Signature: 8AA7D60096249744C91FDF070F750BA8D1CE041B
FILE: 04. Tony Junior - Twerk Anthem (Radio Edit).flac
  Size: 23412984 Hash: 296605531D0C4E714B8E27BEF3363D45 Accuracy: -m0
  Conclusion: CDDA 99%
  Signature: 572F9FE135896DC09824876F272277FE3ED93DEA
FILE: 03. Ahzee - Born Again.flac
  Size: 25432339 Hash: B9DD83B1301B79609E524877107C58DA Accuracy: -m0
  Conclusion: CDDA 100%
  Signature: A5E9393CE6B9FE6EEF68473E64BC5FFF7DC8944D
FILE: 02. Dimitri Vegas & Like Mike vs DVBBS & Borgeous - Stampede (Original Edit).flac
  Size: 24473490 Hash: 35742F3307904E4841EDB9573D05FD01 Accuracy: -m0
  Conclusion: CDDA 100%
  Signature: 164280C68AA98EEB381B878586147CA91A94902A
FILE: 01. Faul & Wad Ad vs Pnau - Changes (Radio Mix).flac
  Size: 23979444 Hash: 807249E2CBAA282938B9CFB157CBA131 Accuracy: -m0
  Conclusion: CDDA 100%
  Signature: 0350973F624FCA7A1D1728899FF26A57FA5F0FEC

Содержание индексной карты .Cue&#58;

PERFORMER "Various Artists"
TITLE "Fun Radio: Fun Dancefloor Spring 2014"
REM DATE 2014
REM DISCNUMBER 1
REM TOTALDISCS 2
REM GENRE "Dance"
FILE "01. Faul & Wad Ad vs Pnau - Changes (Radio Mix).flac" WAVE
  TRACK 01 AUDIO
    PERFORMER "Faul & Wad Ad vs Pnau"
    TITLE "Changes (Radio Mix)"
    INDEX 01 00:00:00
FILE "02. Dimitri Vegas & Like Mike vs DVBBS & Borgeous - Stampede (Original Edit).flac" WAVE
  TRACK 02 AUDIO
    PERFORMER "Dimitri Vegas & Like Mike vs DVBBS & Borgeous"
    TITLE "Stampede (Original Edit)"
    INDEX 01 00:00:00
FILE "03. Ahzee - Born Again.flac" WAVE
  TRACK 03 AUDIO
    PERFORMER "Ahzee"
    TITLE "Born Again"
    INDEX 01 00:00:00
FILE "04. Tony Junior - Twerk Anthem (Radio Edit).flac" WAVE
  TRACK 04 AUDIO
    PERFORMER "Tony Junior"
    TITLE "Twerk Anthem (Radio Edit)"
    INDEX 01 00:00:00
FILE "05. Deorro - Yee (Radio Edit).flac" WAVE
  TRACK 05 AUDIO
    PERFORMER "Deorro"
    TITLE "Yee (Radio Edit)"
    INDEX 01 00:00:00
FILE "06. Martin Garrix & Jay Hardway - Wizard (Radio Edit).flac" WAVE
  TRACK 06 AUDIO
    PERFORMER "Martin Garrix & Jay Hardway"
    TITLE "Wizard (Radio Edit)"
    INDEX 01 00:00:00
FILE "07. Tiesto - Red Light (Radio Edit).flac" WAVE
  TRACK 07 AUDIO
    PERFORMER "Tiësto"
    TITLE "Red Light (Radio Edit)"
    INDEX 01 00:00:00
FILE "08. Fatboy Slim & Riva Starr Feat. Beardyman - Eat Sleep Rave Repeat.flac" WAVE
  TRACK 08 AUDIO
    PERFORMER "Fatboy Slim & Riva Starr Feat. Beardyman"
    TITLE "Eat Sleep Rave Repeat"
    INDEX 01 00:00:00
FILE "09. Maitre Gims - Zombie.flac" WAVE
  TRACK 09 AUDIO
    PERFORMER "Maître Gims"
    TITLE "Zombie"
    INDEX 01 00:00:00
FILE "10. Stromae - Tous Les Memes.flac" WAVE
  TRACK 10 AUDIO
    PERFORMER "Stromae"
    TITLE "Tous Les Mêmes"
    INDEX 01 00:00:00
FILE "11. The Shin Sekai - Du Berceau Au Linceul.flac" WAVE
  TRACK 11 AUDIO
    PERFORMER "The Shin Sekaï"
    TITLE "Du Berceau Au Linceul"
    INDEX 01 00:00:00
FILE "12. Cotpit - Out Of Time.flac" WAVE
  TRACK 12 AUDIO
    PERFORMER "Cotpit"
    TITLE "Out Of Time"
    INDEX 01 00:00:00
FILE "13. DJ Assad Feat. Papi Sanchez & Luyanna (Tropical Family) - Enamorame (Oui Bebe) (Radio Edit).flac" WAVE
  TRACK 13 AUDIO
    PERFORMER "DJ Assad Feat. Papi Sanchez & Luyanna (Tropical Family)"
    TITLE "Enamorame (Oui Bébé) (Radio Edit)"
    INDEX 01 00:00:00
FILE "14. Flavel & Neto Feat. Speed - Vai Dancar.flac" WAVE
  TRACK 14 AUDIO
    PERFORMER "Flavel & Neto Feat. Speed"
    TITLE "Vai Dançar"
    INDEX 01 00:00:00
FILE "15. Al'Varela - Sueno Caliente (French Version).flac" WAVE
  TRACK 15 AUDIO
    PERFORMER "Al'Varela"
    TITLE "Sueno Caliente (French Version)"
    INDEX 01 00:00:00
FILE "16. Lylloo Feat. Jessy Matador - Echo (Radio Edit).flac" WAVE
  TRACK 16 AUDIO
    PERFORMER "Lylloo Feat. Jessy Matador"
    TITLE "Echo (Radio Edit)"
    INDEX 01 00:00:00
FILE "17. Line Up & Manuella - Love Is Not A Game.flac" WAVE
  TRACK 17 AUDIO
    PERFORMER "Line Up & Manuella"
    TITLE "Love Is Not A Game"
    INDEX 01 00:00:00
FILE "18. Underskorr - Be Together (Original Mix Edit).flac" WAVE
  TRACK 18 AUDIO
    PERFORMER "Underskorr"
    TITLE "Be Together (Original Mix Edit)"
    INDEX 01 00:00:00
FILE "19. TSM - Timelapse (Radio Edit).flac" WAVE
  TRACK 19 AUDIO
    PERFORMER "TSM"
    TITLE "Timelapse (Radio Edit)"
    INDEX 01 00:00:00
FILE "20. Benjamin Braxton - Time (English Radio Edit).flac" WAVE
  TRACK 20 AUDIO
    PERFORMER "Benjamin Braxton"
    TITLE "Time (English Radio Edit)"
    INDEX 01 00:00:00
FILE "21. Eva Torres Feat. Rafael Battistuzzi - Dilemme (Radio Edit).flac" WAVE
  TRACK 21 AUDIO
    PERFORMER "Eva Torres Feat. Rafael Battistuzzi"
    TITLE "Dilemme (Radio Edit)"
    INDEX 01 00:00:00
-
CD 2. Треклист:

01. Showtek - We Like To Party (Radio Edit) (03:29)
02. Pitbull & Ke$ha - Timber (03:23)
03. Chuckie Feat. Maiday - Skydrive (03:32)
04. Dust & Diamond & Teairra Marie Feat. Nicki Minaj - Damn (E-Partment 3AM Mix) (03:11)
05. New World Sound & Thomas Newson - Flute (Radio Mix) (03:15)
06. Klingande - Jubel (Radio Edit) (03:18)
07. Erik Arbores - Get Ready (Radio Edit) (02:50)
08. Afrojack Feat. Spree Wilson - The Spark (04:00)
09. DVBBS & Borgeous - Tsunami (03:56)
10. Quentin Mosimann & John Revox - International (Radio Edit) (03:37)
11. Greg B - Wodan (Superclass Edit) (03:30)
12. Blasterjaxx - Fifteen (Hardwell Radio Edit) (02:53)
13. Hardwell Feat. Matthew Koma - Dare You (Radio Edit) (03:38)
14. Carnage Feat. Tony Junior - Michael Jordan (Original Mix) (03:44)
15. Rudy MC Feat. Ddino Mileta - Huk ! (Radio Edit) (03:33)
16. Joeysuki - Builder (Radio Edit) (05:31)
17. Nicky Romero vs Krewella - Legacy (03:14)
18. Krewella - Enjoy The Ride (03:30)
19. Benny Benassi - Back To The Pump (Radio Edit) (03:14)
20. Quentin Mosimann Feat. Amanda Wilson - Hello (03:00)
21. Natty Rico & Adrien Toma - My Sax Is Yours (Radio Edit) (03:24)

Продолжительность:01:13:52--

Отчет auCDtect Task manager&#58;

-----------------------
DON'T MODIFY THIS FILE
-----------------------
PERFORMER: auCDtect Task Manager, ver. 1.6.0 RC1 build 1.6.0.1
Copyright (c) 2008-2010 y-soft. All rights reserved
http://y-soft.org
ANALYZER: auCDtect: CD records authenticity detector, version 0.8.2
Copyright (c) 2004 Oleg Berngardt. All rights reserved.
Copyright (c) 2004 Alexander Djourik. All rights reserved.
FILE: 21. Natty Rico & Adrien Toma - My Sax Is Yours (Radio Edit).flac
  Size: 28311638 Hash: A69C17AFC56AD72A497DBF77B218AB86 Accuracy: -m0
  Conclusion: CDDA 99%
  Signature: E005DA90E155AE8EED4AAB3C1A242EBDD6304523
FILE: 20. Quentin Mosimann Feat. Amanda Wilson - Hello.flac
  Size: 23767436 Hash: B613BA5146B86D8F0FFBC2A1C956BC2E Accuracy: -m0
  Conclusion: CDDA 100%
  Signature: 428ED9232D6F9A5F23650AB8545FB493F0152DEA
FILE: 19. Benny Benassi - Back To The Pump (Radio Edit).flac
  Size: 27063279 Hash: 2FE6B0DF2E2ACEEE8DF754C3AE6C0F6C Accuracy: -m0
  Conclusion: CDDA 100%
  Signature: A1681CBC24D57923BFEF9DE95DA206758BA1A867
FILE: 18. Krewella - Enjoy The Ride.flac
  Size: 28989368 Hash: 50C03F2820769508035E2B3108C9901B Accuracy: -m0
  Conclusion: CDDA 100%
  Signature: 03915B42F94BBD99A74309A200299365917E52CE
FILE: 17. Nicky Romero vs Krewella - Legacy.flac
  Size: 24823249 Hash: CA75EB0E45AB7491CC921CF72CED74EB Accuracy: -m0
  Conclusion: CDDA 100%
  Signature: 665A1957F1C8B7758B814493A570CC344BD2343B
FILE: 16. Joeysuki - Builder (Radio Edit).flac
  Size: 43255073 Hash: 8B6EBBFE23149C51AC1EA8AC1BC2BFA9 Accuracy: -m0
  Conclusion: CDDA 100%
  Signature: A97C48620C80DC991C2229B0873A5199AF4A6243
FILE: 15. Rudy MC Feat. Ddino Mileta - Huk ! (Radio Edit).flac
  Size: 28203397 Hash: 816511F5D7DA6AE375A43103025B40C6 Accuracy: -m0
  Conclusion: CDDA 100%
  Signature: 03185CA72310E041C484C07E8565BC42A5625363
FILE: 14. Carnage Feat. Tony Junior - Michael Jordan (Original Mix).flac
  Size: 30399404 Hash: D42A760527F8E2DEBC16E4A32577CCF1 Accuracy: -m0
  Conclusion: CDDA 100%
  Signature: F92B798690805A55F2CE5CADDBD2A6C3E7F48071
FILE: 13. Hardwell Feat. Matthew Koma - Dare You (Radio Edit).flac
  Size: 29626275 Hash: 10858ED7F6EB5468EF8217C6DF76315A Accuracy: -m0
  Conclusion: CDDA 100%
  Signature: CF8FFB95B1CD62B15913E08CF35BC69A693E4784
FILE: 12. Blasterjaxx - Fifteen (Hardwell Radio Edit).flac
  Size: 22920521 Hash: 412E8E6AD8CC74F86446BFD8D4E67A69 Accuracy: -m0
  Conclusion: CDDA 100%
  Signature: D5113F3ABBA5847FCE0E763A9EFC84404F05D662
FILE: 11. Greg B - Wodan (Superclass Edit).flac
  Size: 28104033 Hash: 3F94C92AA81B12B2FCA2DE765311EE8F Accuracy: -m0
  Conclusion: CDDA 99%
  Signature: 8C5A1E849859CA49AE9679EB4AE1A115D935ACFC
FILE: 10. Quentin Mosimann & John Revox - International (Radio Edit).flac
  Size: 28481255 Hash: 7E60D4101E689B773B0E301AB307A24C Accuracy: -m0
  Conclusion: CDDA 100%
  Signature: 891C2C61DE5254E5FE6567227D3AF73E43419C44
FILE: 09. DVBBS & Borgeous - Tsunami.flac
  Size: 27100419 Hash: 8BA73EF557481E3E6ECBE40B4925AE35 Accuracy: -m0
  Conclusion: CDDA 100%
  Signature: 5CCF5619F9B9DFDEC88C64D851F281222D57834C
FILE: 08. Afrojack Feat. Spree Wilson - The Spark.flac
  Size: 32573137 Hash: 2B03E39C2AF898BAEFD10282BE9CF5CA Accuracy: -m0
  Conclusion: CDDA 100%
  Signature: 8ABC9A6EC83D60DD39AE1B07877CADA885C4CF7B
FILE: 07. Erik Arbores - Get Ready (Radio Edit).flac
  Size: 23032074 Hash: 1A0FBF0C7846CD44F9E8E4B18A997BA2 Accuracy: -m0
  Conclusion: CDDA 100%
  Signature: 70510355ABD4E9CC617DB2877472E7E7075FE394
FILE: 06. Klingande - Jubel (Radio Edit).flac
  Size: 23408872 Hash: 897048AE1F127555DCCC7DE14F705168 Accuracy: -m0
  Conclusion: ???
  Signature: AA1E48A4822D757F8C1A5EE18424165D59A9A16E
FILE: 05. New World Sound & Thomas Newson - Flute (Radio Mix).flac
  Size: 25629297 Hash: 8BDD0495C9EB595D83CA0F085F7F0FFA Accuracy: -m0
  Conclusion: CDDA 100%
  Signature: 0D234212C04BDC0CAA364A7B5FE19F31FD23A695
FILE: 04. Dust & Diamond & Teairra Marie Feat. Nicki Minaj - Damn (E-Partment 3AM Mix).flac
  Size: 24018460 Hash: 8F35F9905340AB063A09CF7374327C67 Accuracy: -m0
  Conclusion: CDDA 100%
  Signature: A7497EBA7385519F45E762DD46D1F646549AECFF
FILE: 03. Chuckie Feat. Maiday - Skydrive.flac
  Size: 28332466 Hash: B36F86D5B64F9277FB1FABBF35107CE9 Accuracy: -m0
  Conclusion: CDDA 100%
  Signature: BB23767552003C4C229A781B1260301491475EFD
FILE: 02. Pitbull & Ke$ha - Timber.flac
  Size: 27473845 Hash: 4E8D84F50CFBE3B3863EC9C317B4062F Accuracy: -m0
  Conclusion: CDDA 100%
  Signature: 544308F6A500B76B3CF3BC413AE70FAA6CF7091D
FILE: 01. Showtek - We Like To Party (Radio Edit).flac
  Size: 29198526 Hash: 7668B23AD3A88C3916406BAD6809A078 Accuracy: -m0
  Conclusion: CDDA 100%
  Signature: 624091BEA499BAEC49D7ACDE2AE98C4F445736B7

Содержание индексной карты .Cue&#58;

PERFORMER "Various Artists"
TITLE "Fun Radio: Fun Dancefloor Spring 2014"
REM DATE 2014
REM DISCNUMBER 2
REM TOTALDISCS 2
REM GENRE "Dance"
FILE "01. Showtek - We Like To Party (Radio Edit).flac" WAVE
  TRACK 01 AUDIO
    PERFORMER "Showtek"
    TITLE "We Like To Party (Radio Edit)"
    INDEX 01 00:00:00
FILE "02. Pitbull & Ke$ha - Timber.flac" WAVE
  TRACK 02 AUDIO
    PERFORMER "Pitbull & Ke$ha"
    TITLE "Timber"
    INDEX 01 00:00:00
FILE "03. Chuckie Feat. Maiday - Skydrive.flac" WAVE
  TRACK 03 AUDIO
    PERFORMER "Chuckie Feat. Maiday"
    TITLE "Skydrive"
    INDEX 01 00:00:00
FILE "04. Dust & Diamond & Teairra Marie Feat. Nicki Minaj - Damn (E-Partment 3AM Mix).flac" WAVE
  TRACK 04 AUDIO
    PERFORMER "Dust & Diamond & Teairra Marie Feat. Nicki Minaj"
    TITLE "Damn (E-Partment 3AM Mix)"
    INDEX 01 00:00:00
FILE "05. New World Sound & Thomas Newson - Flute (Radio Mix).flac" WAVE
  TRACK 05 AUDIO
    PERFORMER "New World Sound & Thomas Newson"
    TITLE "Flute (Radio Mix)"
    INDEX 01 00:00:00
FILE "06. Klingande - Jubel (Radio Edit).flac" WAVE
  TRACK 06 AUDIO
    PERFORMER "Klingande"
    TITLE "Jubel (Radio Edit)"
    INDEX 01 00:00:00
FILE "07. Erik Arbores - Get Ready (Radio Edit).flac" WAVE
  TRACK 07 AUDIO
    PERFORMER "Erik Arbores"
    TITLE "Get Ready (Radio Edit)"
    INDEX 01 00:00:00
FILE "08. Afrojack Feat. Spree Wilson - The Spark.flac" WAVE
  TRACK 08 AUDIO
    PERFORMER "Afrojack Feat. Spree Wilson"
    TITLE "The Spark"
    INDEX 01 00:00:00
FILE "09. DVBBS & Borgeous - Tsunami.flac" WAVE
  TRACK 09 AUDIO
    PERFORMER "DVBBS & Borgeous"
    TITLE "Tsunami"
    INDEX 01 00:00:00
FILE "10. Quentin Mosimann & John Revox - International (Radio Edit).flac" WAVE
  TRACK 10 AUDIO
    PERFORMER "Quentin Mosimann & John Revox"
    TITLE "International (Radio Edit)"
    INDEX 01 00:00:00
FILE "11. Greg B - Wodan (Superclass Edit).flac" WAVE
  TRACK 11 AUDIO
    PERFORMER "Greg B"
    TITLE "Wodan (Superclass Edit)"
    INDEX 01 00:00:00
FILE "12. Blasterjaxx - Fifteen (Hardwell Radio Edit).flac" WAVE
  TRACK 12 AUDIO
    PERFORMER "Blasterjaxx"
    TITLE "Fifteen (Hardwell Radio Edit)"
    INDEX 01 00:00:00
FILE "13. Hardwell Feat. Matthew Koma - Dare You (Radio Edit).flac" WAVE
  TRACK 13 AUDIO
    PERFORMER "Hardwell Feat. Matthew Koma"
    TITLE "Dare You (Radio Edit)"
    INDEX 01 00:00:00
FILE "14. Carnage Feat. Tony Junior - Michael Jordan (Original Mix).flac" WAVE
  TRACK 14 AUDIO
    PERFORMER "Carnage Feat. Tony Junior"
    TITLE "Michael Jordan (Original Mix)"
    INDEX 01 00:00:00
FILE "15. Rudy MC Feat. Ddino Mileta - Huk ! (Radio Edit).flac" WAVE
  TRACK 15 AUDIO
    PERFORMER "Rudy MC Feat. Ddino Mileta"
    TITLE "Huk ! (Radio Edit)"
    INDEX 01 00:00:00
FILE "16. Joeysuki - Builder (Radio Edit).flac" WAVE
  TRACK 16 AUDIO
    PERFORMER "Joeysuki"
    TITLE "Builder (Radio Edit)"
    INDEX 01 00:00:00
FILE "17. Nicky Romero vs Krewella - Legacy.flac" WAVE
  TRACK 17 AUDIO
    PERFORMER "Nicky Romero vs Krewella"
    TITLE "Legacy"
    INDEX 01 00:00:00
FILE "18. Krewella - Enjoy The Ride.flac" WAVE
  TRACK 18 AUDIO
    PERFORMER "Krewella"
    TITLE "Enjoy The Ride"
    INDEX 01 00:00:00
FILE "19. Benny Benassi - Back To The Pump (Radio Edit).flac" WAVE
  TRACK 19 AUDIO
    PERFORMER "Benny Benassi"
    TITLE "Back To The Pump (Radio Edit)"
    INDEX 01 00:00:00
FILE "20. Quentin Mosimann Feat. Amanda Wilson - Hello.flac" WAVE
  TRACK 20 AUDIO
    PERFORMER "Quentin Mosimann Feat. Amanda Wilson"
    TITLE "Hello"
    INDEX 01 00:00:00
FILE "21. Natty Rico & Adrien Toma - My Sax Is Yours (Radio Edit).flac" WAVE
  TRACK 21 AUDIO
    PERFORMER "Natty Rico & Adrien Toma"
    TITLE "My Sax Is Yours (Radio Edit)"
    INDEX 01 00:00:00
-
Яндекс.Метрика
Рейтинг@Mail.ru