Dr. Alban - Music Box [APE|Lossless]<Eurodance>

 

Создавать темы 17-Дек-2014 11:52

-Dr. Alban - Music Box (2003)- Год: 2003
Жанр: Eurodance
Продолжительность: 01:11:41
Кодек: APE
Битрейт: Lossless
Тип рипа: image + .cue
Треклист:
01. It's My Life (Reggae mix) [04:32]
02. Papaya Coconut [04:00]
03. Mr DJ [03:36]
04. No Coke [06:41]
05. Away From Home [03:16]
06. Enemies [03:31]
07. Gimme Dat Lovin [04:05]
08. Long Time Ago (Sash remix) [03:04]
09. Mountans [03:16]
10. Reggae Music Gonna Move Ya [04:09]
11. Hallelujah Day (radio mix) [03:33]
12. Born in Africa [03:28]
13. Look Who's Talking [05:21]
14. Sing Hallelujah! [04:00]
15. Let the Beat Go On [04:02]
16. Telephone Love [02:50]
17. It's My Life [03:59]
18. One Love [04:11]

Отчёт ЕАС&#58;

Exact Audio Copy V0.99 prebeta 1 from 25. May 2007
Отчёт EAC об извлечении, выполненном 22. марта 2008, 13:48
Dr Alban / Music Box
Дисковод: PLEXTOR DVDR   PX-810SA   Adapter: 4  ID: 0
Режим чтения : Скоростной
Коррекция смещения при чтении                 : 48
Способность читать области Lead-in и Lead-out : Нет
Заполнение пропущенных сэмплов тишиной        : Да
Удаление блоков с тишиной в начале и конце    : Нет
Интерфейс                                     : Встроенный Win32-интерфейс для Win NT/2000
Выходной формат : Внутренние WAV-операции
Формат сэмплов  : 44.100 Гц; 16 бит; стерео
TOC извлечённого CD
     Трек |   Старт  | Длительность | Начальный сектор | Конечный сектор
    ---------------------------------------------------------------------
       1  |  0:00.00 |    4:32.22   |           0      |      20421
       2  |  4:32.22 |    4:00.33   |       20422      |      38454
       3  |  8:32.55 |    3:36.33   |       38455      |      54687
       4  | 12:09.13 |    6:41.32   |       54688      |      84794
       5  | 18:50.45 |    3:16.41   |       84795      |      99535
       6  | 22:07.11 |    3:31.60   |       99536      |     115420
       7  | 25:38.71 |    4:05.58   |      115421      |     133853
       8  | 29:44.54 |    3:04.05   |      133854      |     147658
       9  | 32:48.59 |    3:16.04   |      147659      |     162362
      10  | 36:04.63 |    4:09.13   |      162363      |     181050
      11  | 40:14.01 |    3:33.55   |      181051      |     197080
      12  | 43:47.56 |    3:27.74   |      197081      |     212679
      13  | 47:15.55 |    5:21.13   |      212680      |     236767
      14  | 52:36.68 |    4:00.01   |      236768      |     254768
      15  | 56:36.69 |    4:02.12   |      254769      |     272930
      16  | 60:39.06 |    2:50.67   |      272931      |     285747
      17  | 63:29.73 |    3:59.23   |      285748      |     303695
      18  | 67:29.21 |    4:12.01   |      303696      |     322596
Характеристики диапазона извлечения и сообщения об ошибках
Выбранный диапазон
     Имя файла G:\Rip\Dr Alban\Music Box\Dr Alban - Music Box.wav
     Проблемы синхронизации 0:00:28
     Пиковый уровень 96.6 %
     CRC копии 1989ECF1
     Копирование завершено
AccurateRip: сводка
Трек  1  нет в базе данных
Трек  2  нет в базе данных
Трек  3  нет в базе данных
Трек  4  нет в базе данных
Трек  5  нет в базе данных
Трек  6  нет в базе данных
Трек  7  нет в базе данных
Трек  8  нет в базе данных
Трек  9  нет в базе данных
Трек 10  нет в базе данных
Трек 11  нет в базе данных
Трек 12  нет в базе данных
Трек 13  нет в базе данных
Трек 14  нет в базе данных
Трек 15  нет в базе данных
Трек 16  нет в базе данных
Трек 17  нет в базе данных
Трек 18  нет в базе данных
Ошибок не произошло
Конец отчёта

Отчёт auCDtect Task manager&#58;

auCDtect: CD records authenticity detector, version 0.8.2
Copyright (c) 2004 Oleg Berngardt. All rights reserved.
Copyright (c) 2004 Alexander Djourik. All rights reserved.
------------------------------------------------------------
Processing file:  [Dr Alban - Music Box.wav]
Detected average hi-boundary frequency: 2.030589e+004 Hz
Detected average lo-boundary frequency: 1.468557e+004 Hz
Detected average hi-cut frequency: 2.152890e+004 Hz
Detected average lo-cut frequency: 1.501432e+004 Hz
Maximum probablis boundary frequency: 2.189100e+004 Hz
Coefficient of nonlinearity of a phase: 3.870679e-003
First order smothness: 4.711840e-001
Second order smothness: 5.943512e-001
------------------------------------------------------------
This track looks like CDDA with probability 100%
Время раздачи: 24/7Реставрация от: kudzin
Яндекс.Метрика
Рейтинг@Mail.ru