Boney M. - Original Version - Long Version - Rarities (2012) 4xCD Box Set / CD Records / [FLAC|Lossless]<Disco, Dance>

 

Создавать темы 17-Дек-2014 11:52

-Boney M. - Original Version - Long Version - Rarities (2012) Год: 2012
Жанр: Disco, Dance
Продолжительность: 05:16:51
Тип рипа: image+.cue
Формат издания: 4xCD Box Set
Кодек: FLAC
Битрейт: Lossless
Издатель: CD Records
Источник: Victor
Наличие сканов: да
-В данный Бокс Сет вошли не только супер хиты немецкой диско-группы Boney M., но и синглы, миксы, вышедшие в США и Европе. Очень хорошая подборка.
Приятного прослушивания!
--

Треклист&#58;

Disc 1

Треклист:

01. No More Chain Gang (Long Version) (5:41)
02. Exodus (Maxi Version) (5:47)
03. Gotta Go Home (Long 12'' Version) (5:07)
04. Help! Help! (Long Version) (6:06)
05. Rivers Of Babylon (US Extended Promo Version) (7:26)
06. Kalimba De Luna (US Club Mix) (9:40)
07. (I Need A) Babysitter (Original Version) (3:36)
08. Somewhere In The World (Long Version) (5:08)
09. Young, Free And Single (12' Version) (8:09)
10. My Friend Jack (Long 12'' Version) (8:27)
11. Mary's Boy Child Oh My Lord (Long 12'' Version) (6:21)
12. Mother And Child Reunion (Fr. Farian Corpor. Long Version) (7:33)
Продолжительность: 001:19:01

Отчёт ЕАС&#58;

Exact Audio Copy V1.0 beta 1 from 15. November 2010
EAC extraction logfile from 14. September 2012, 20:11
Boney M / Original Version • Long Version • Rarities (CD1)
Used drive  : ATAPI   iHAP122   W   Adapter: 1  ID: 0
Read mode               : Secure
Utilize accurate stream : Yes
Defeat audio cache      : Yes
Make use of C2 pointers : No
Read offset correction                      : 6
Overread into Lead-In and Lead-Out          : No
Fill up missing offset samples with silence : Yes
Delete leading and trailing silent blocks   : No
Null samples used in CRC calculations       : Yes
Used interface                              : Native Win32 interface for Win NT & 2000
Used output format : Internal WAV Routines
Sample format      : 44.100 Hz; 16 Bit; Stereo
TOC of the extracted CD
     Track |   Start  |  Length  | Start sector | End sector
    ---------------------------------------------------------
        1  |  0:00.00 |  5:41.17 |         0    |    25591
        2  |  5:41.17 |  5:46.62 |     25592    |    51603
        3  | 11:28.04 |  5:07.08 |     51604    |    74636
        4  | 16:35.12 |  6:06.37 |     74637    |   102123
        5  | 22:41.49 |  7:25.57 |    102124    |   135555
        6  | 30:07.31 |  9:40.20 |    135556    |   179075
        7  | 39:47.51 |  3:36.27 |    179076    |   195302
        8  | 43:24.03 |  5:07.65 |    195303    |   218392
        9  | 48:31.68 |  8:09.01 |    218393    |   255068
       10  | 56:40.69 |  8:26.42 |    255069    |   293060
       11  | 65:07.36 |  6:20.59 |    293061    |   321619
       12  | 71:28.20 |  7:32.68 |    321620    |   355587
Range status and errors
Selected range
     Filename C:\MusicBox\Boney M - Original Version • Long Version • Rarities (CD1).wav
     Peak level 100.0 %
     Extraction speed 0.9 X
     Range quality 100.0 %
     Copy CRC F1DF7FE5
     Copy OK
No errors occurred
End of status report

Отчёт auCDtect Task manager&#58;

-----------------------
DON'T MODIFY THIS FILE
-----------------------
PERFORMER: auCDtect Task Manager, ver. 1.5.1RC4 build 1.5.1.5
Copyright (c) 2008-2010 y-soft. All rights reserved
http://y-soft.org
ANALYZER: auCDtect: CD records authenticity detector, version 0.8.2
Copyright (c) 2004 Oleg Berngardt. All rights reserved.
Copyright (c) 2004 Alexander Djourik. All rights reserved.
FILE: Boney M - Original Version • Long Version • Rarities (CD1).flac
  Size: 569723082 Hash: 162464EACB840873EDA6D2AF001879EE Accuracy: -m0
  Conclusion: CDDA 100%
  Signature: 081C199404E991B8496CFAC27A5A6B35293991C9

Disc 2

Треклист:

01. Dreadlock Holiday (Rap Long Version) (11:01)
02. Daddy Cool (Special Club Mix) (9:11)
03. Felicidad (Margherita) (12'' Version) (11:48)
04. Gadda-Da-Vida (Long 12'' Version) (8:58)
05. Going Back West (12'' Version Full) (5:03)
06. Bahama Mama (Long 12'' Version) (5:15)
07. Ribbons Of Blue (Original Long 7'' Version) (4:09)
08. Dancing In The Streets (Long 12'' Version) (6:23)
09. Children Of Paradise (Long 12'' Version) (5:19)
10. 6 Years Of Boney M Hits (Boney M On 45) (11:17)
Продолжительность: 01:18:23

Отчёт ЕАС&#58;

Exact Audio Copy V1.0 beta 1 from 15. November 2010
EAC extraction logfile from 14. September 2012, 20:38
Boney M / Original Version • Long Version • Rarities (CD2)
Used drive  : ATAPI   iHAP122   W   Adapter: 1  ID: 0
Read mode               : Secure
Utilize accurate stream : Yes
Defeat audio cache      : Yes
Make use of C2 pointers : No
Read offset correction                      : 6
Overread into Lead-In and Lead-Out          : No
Fill up missing offset samples with silence : Yes
Delete leading and trailing silent blocks   : No
Null samples used in CRC calculations       : Yes
Used interface                              : Native Win32 interface for Win NT & 2000
Used output format : Internal WAV Routines
Sample format      : 44.100 Hz; 16 Bit; Stereo
TOC of the extracted CD
     Track |   Start  |  Length  | Start sector | End sector
    ---------------------------------------------------------
        1  |  0:00.00 | 11:00.60 |         0    |    49559
        2  | 11:00.60 |  9:10.59 |     49560    |    90868
        3  | 20:11.44 | 11:47.65 |     90869    |   143958
        4  | 31:59.34 |  8:57.73 |    143959    |   184306
        5  | 40:57.32 |  5:02.41 |    184307    |   206997
        6  | 45:59.73 |  5:14.68 |    206998    |   230615
        7  | 51:14.66 |  4:08.73 |    230616    |   249288
        8  | 55:23.64 |  6:22.62 |    249289    |   278000
        9  | 61:46.51 |  5:19.08 |    278001    |   301933
       10  | 67:05.59 | 11:16.65 |    301934    |   352698
Range status and errors
Selected range
     Filename C:\MusicBox\Boney M - Original Version • Long Version • Rarities (CD2).wav
     Peak level 100.0 %
     Extraction speed 1.4 X
     Range quality 100.0 %
     Copy CRC B7E89EDE
     Copy OK
No errors occurred
End of status report

Отчёт auCDtect Task manager&#58;

[pre]-----------------------
DON'T MODIFY THIS FILE
-----------------------
PERFORMER: auCDtect Task Manager, ver. 1.5.1RC4 build 1.5.1.5
Copyright (c) 2008-2010 y-soft. All rights reserved
http://y-soft.org
ANALYZER: auCDtect: CD records authenticity detector, version 0.8.2
Copyright (c) 2004 Oleg Berngardt. All rights reserved.
Copyright (c) 2004 Alexander Djourik. All rights reserved.
FILE: Boney M - Original Version • Long Version • Rarities (CD2).flac
Size: 565508562 Hash: 58C1B2AEC1C87C3170D7DFCCDC880893 Accuracy: -m0
Conclusion: CDDA 100%
Signature: ABA349EBD60D2068F3E8525B44047470B1CA8113
[/code]

Disc 3

Треклист:

01. Sunny (4:03)
02. Ma Baker (4:08)
03. Got a Man On My Mind (3:24)
04. Rivers Of Babylon (4:00)
05. Daddy Cool (3:30)
06. Rasputin (4:28)
07. Fever (4:01)
08. Gotta Go Home (3:47)
09. Nightflight To Venus (3:51)
10. Bahama Mama (3:19)
11. Brown Girl In The Ring (3:05)
12. Belfast (3:31)
13. Gadda-Da-Vida (3:01)
14. Felicidad (2:54)
15. No Woman, No Cry (3:33)
16. Painter Man (3:13)
17. Kalimba De Luna (3:49)
18. Plantation Boy (4:26)
19. King Of The Road (2:37)
20. Children Of Paradise (2:52)
21. Voodoonight (3:32)
22. Motherless Child (4:19)
Продолжительность: 01:19:22

Отчёт ЕАС&#58;

Exact Audio Copy V1.0 beta 1 from 15. November 2010
EAC extraction logfile from 14. September 2012, 21:14
Boney M / Original Version • Long Version • Rarities (CD3)
Used drive  : PIONEER DVD-RW  DVR-215   Adapter: 0  ID: 1
Read mode               : Secure
Utilize accurate stream : Yes
Defeat audio cache      : Yes
Make use of C2 pointers : No
Combined read/write offset correction       : 24
Overread into Lead-In and Lead-Out          : No
Fill up missing offset samples with silence : Yes
Delete leading and trailing silent blocks   : No
Null samples used in CRC calculations       : Yes
Used interface                              : Native Win32 interface for Win NT & 2000
Used output format : Internal WAV Routines
Sample format      : 44.100 Hz; 16 Bit; Stereo
TOC of the extracted CD
     Track |   Start  |  Length  | Start sector | End sector
    ---------------------------------------------------------
        1  |  0:00.00 |  4:02.55 |         0    |    18204
        2  |  4:02.55 |  4:07.50 |     18205    |    36779
        3  |  8:10.30 |  3:24.35 |     36780    |    52114
        4  | 11:34.65 |  4:00.15 |     52115    |    70129
        5  | 15:35.05 |  3:29.65 |     70130    |    85869
        6  | 19:04.70 |  4:27.55 |     85870    |   105949
        7  | 23:32.50 |  4:00.55 |    105950    |   124004
        8  | 27:33.30 |  3:47.08 |    124005    |   141037
        9  | 31:20.38 |  3:50.50 |    141038    |   158337
       10  | 35:11.13 |  3:19.30 |    158338    |   173292
       11  | 38:30.43 |  3:04.62 |    173293    |   187154
       12  | 41:35.30 |  3:31.25 |    187155    |   203004
       13  | 45:06.55 |  3:00.55 |    203005    |   216559
       14  | 48:07.35 |  2:54.23 |    216560    |   229632
       15  | 51:01.58 |  3:32.45 |    229633    |   245577
       16  | 54:34.28 |  3:12.38 |    245578    |   260015
       17  | 57:46.66 |  3:49.05 |    260016    |   277195
       18  | 61:35.71 |  4:26.07 |    277196    |   297152
       19  | 66:02.03 |  2:37.28 |    297153    |   308955
       20  | 68:39.31 |  2:51.53 |    308956    |   321833
       21  | 71:31.09 |  3:32.27 |    321834    |   337760
       22  | 75:03.36 |  4:18.42 |    337761    |   357152
Range status and errors
Selected range
     Filename C:\MusicBox\Boney M - Original Version • Long Version • Rarities (CD3).wav
     Peak level 100.0 %
     Extraction speed 0.4 X
     Range quality 100.0 %
     Copy CRC 9F544022
     Copy OK
No errors occurred
End of status report

Отчёт auCDtect Task manager&#58;

-----------------------
DON'T MODIFY THIS FILE
-----------------------
PERFORMER: auCDtect Task Manager, ver. 1.5.1RC4 build 1.5.1.5
Copyright (c) 2008-2010 y-soft. All rights reserved
http://y-soft.org
ANALYZER: auCDtect: CD records authenticity detector, version 0.8.2
Copyright (c) 2004 Oleg Berngardt. All rights reserved.
Copyright (c) 2004 Alexander Djourik. All rights reserved.
FILE: Boney M - Original Version • Long Version • Rarities (CD3).flac
  Size: 572131976 Hash: D3B158525A5262499C3744279C9D2DBB Accuracy: -m0
  Conclusion: CDDA 100%
  Signature: 13C979DAA2A1EFFCD7F44DD80A961ADDD46CF342

Disc 4

Треклист:

01. Silly Confusion (12'' Version) (4:01)
02. African Moon (Long Version) (6:43)
03. I See A Boat On The River (Long 12'' Version) (6:07)
04. I'm Alive (Fr. Farian Corp. Long Version) (5:15)
05. Going Back West (3:12)
06. Hooray! Hooray! It's A Holi-Holiday (3:39)
07. Love For Sale (4:15)
08. Hold On! I'm Comin' (3:38)
09. Bang Bang Lulu (3:01)
10. Barbarella Fortuneteller (2:56)
11. Happy Song (3:31)
12. I Feel Good (3:06)
13. Living Like A Moviestar (2:58)
14. Dreadlock Holiday (4:19)
15. Gloria, Can You Waddle (3:57)
16. Calender Song (January, February, March...) (2:24)
17. Boonoonoonoos (2:14)
18. Future World (Long Promo Version) (4:10)
19. Consuela Biaz (Single Version) (5:21)
20. Take The Heat Off Me (4:49)
Продолжительность: 01:19:36

Отчёт ЕАС&#58;

Exact Audio Copy V1.0 beta 1 from 15. November 2010
EAC extraction logfile from 14. September 2012, 21:45
Boney M / Original Version • Long Version • Rarities (CD4)
Used drive  : ATAPI   iHAP122   W   Adapter: 1  ID: 0
Read mode               : Secure
Utilize accurate stream : Yes
Defeat audio cache      : Yes
Make use of C2 pointers : No
Read offset correction                      : 6
Overread into Lead-In and Lead-Out          : No
Fill up missing offset samples with silence : Yes
Delete leading and trailing silent blocks   : No
Null samples used in CRC calculations       : Yes
Used interface                              : Native Win32 interface for Win NT & 2000
Used output format : Internal WAV Routines
Sample format      : 44.100 Hz; 16 Bit; Stereo
TOC of the extracted CD
     Track |   Start  |  Length  | Start sector | End sector
    ---------------------------------------------------------
        1  |  0:00.00 |  4:00.55 |         0    |    18054
        2  |  4:00.55 |  6:43.35 |     18055    |    48314
        3  | 10:44.15 |  6:06.73 |     48315    |    75837
        4  | 16:51.13 |  5:14.43 |     75838    |    99430
        5  | 22:05.56 |  3:12.37 |     99431    |   113867
        6  | 25:18.18 |  3:38.67 |    113868    |   130284
        7  | 28:57.10 |  4:15.13 |    130285    |   149422
        8  | 33:12.23 |  3:37.48 |    149423    |   165745
        9  | 36:49.71 |  3:00.58 |    165746    |   179303
       10  | 39:50.54 |  2:56.13 |    179304    |   192516
       11  | 42:46.67 |  3:30.63 |    192517    |   208329
       12  | 46:17.55 |  3:05.48 |    208330    |   222252
       13  | 49:23.28 |  2:58.10 |    222253    |   235612
       14  | 52:21.38 |  4:18.70 |    235613    |   255032
       15  | 56:40.33 |  3:57.15 |    255033    |   272822
       16  | 60:37.48 |  2:24.22 |    272823    |   283644
       17  | 63:01.70 |  2:13.50 |    283645    |   293669
       18  | 65:15.45 |  4:09.38 |    293670    |   312382
       19  | 69:25.08 |  5:21.13 |    312383    |   336470
       20  | 74:46.21 |  4:49.22 |    336471    |   358167
Range status and errors
Selected range
     Filename C:\MusicBox\Boney M - Original Version • Long Version • Rarities (CD4).wav
     Peak level 100.0 %
     Extraction speed 0.6 X
     Range quality 100.0 %
     Copy CRC 12148288
     Copy OK
No errors occurred
End of status report

Отчёт auCDtect Task manager&#58;

-----------------------
DON'T MODIFY THIS FILE
-----------------------
PERFORMER: auCDtect Task Manager, ver. 1.5.1RC4 build 1.5.1.5
Copyright (c) 2008-2010 y-soft. All rights reserved
http://y-soft.org
ANALYZER: auCDtect: CD records authenticity detector, version 0.8.2
Copyright (c) 2004 Oleg Berngardt. All rights reserved.
Copyright (c) 2004 Alexander Djourik. All rights reserved.
FILE: Boney M - Original Version • Long Version • Rarities (CD4).flac
  Size: 572363953 Hash: 722E94593F789F12C7398A53CAE9CA66 Accuracy: -m0
  Conclusion: CDDA 100%
  Signature: C40D2BCCF5BB6C5FEA0C7031771B7D19E7A3094E
-
Яндекс.Метрика
Рейтинг@Mail.ru