DJ BoBo - Best Of (2014) [FLAC|Lossless]<Pop, Electronic, Dancepop, Eurodance, Eurohouse>

 

Создавать темы 17-Дек-2014 11:52

-DJ BoBo - Best Of (2014)- Год: 2014
Жанр: Pop, Electronic, Dancepop, Eurodance, Eurohouse
Лейбл: Yes Music / Warner Music
Номер по каталогу: Yes 2080
Страна: EU
Продолжительность: 01:13:46
Тип рипа: tracks+.cue
Кодек: FLAC
Битрейт: Lossless
Наличие сканов в содержимом раздачи: да (JPG, 300 dpi, 30 Mb)
Треклист:
01. Freedom (1994) - 3:56
02. Love Is All Around (1994) - 4:05
03. Everybody (1993) - 3:48
04. Somebody Dance With Me (1992) - 3:32
05. Pray (1996) - 3:52
06. Respect Yourself (1996) - 3:59
07. Keep On Dancing (1993) - 3:31
08. Take Control (1993) - 3:45
09. Let The Dream Come True (1994) - 4:01
10. There Is A Party (1995) - 4:12
11. Chihuahua (2002) - 3:00
12. Where Is Your Love (1998) - 3:54
13. Shadows Of The Night (feat. VSOP) (1996) - 3:59
14. It's My Life (1996) - 3:51
15. I Believe (2002) - 3:40
16. Secrets Of Love (with Sandra) (2006) - 3:19
17. Vampires Are Alive (2007) - 2:50
18. Love Is The Price (1995) - 3:31
19. Superstar (2010) - 3:33
20. What A Feeling (with Irene Cara) (2000) - 3:19

Дополнительная информация&#58;

Credits:
Written by René Baumann (1-17, 19), Alex Trime (1, 5), Sven "Delgado" Jordan (1, 5), Axel Breitung (2, 5, 6, 8-17), Morrison Long (2), Joe South (3), Daniel Peyer (3, 4, 7, 8), Kurt Burger (4, 9), Rockwell (4), Gutze Gautschi (7, 8), Mark Wyss (7, 8), Ray Gilbert (11), Luis Oliveira (11), Steven Levis (18), Morrison Long (18), Pat Paks (19), Annabella Jul (19), Roman Lüth (19), Giorgio Moroder (20), Keith Forsey (20), Irene Cara (20)
Produced by René Baumann, Axel Breitung (1, 4, 5, 9-12, 15-17, 20), Gutze Gautschi (3, 4, 7, 8), Mark Wyss (3, 4, 7, 8), Joe Wuest (4), Achim Kleist (19), Roman Lüth (19)
Об исполнителе:
Петер Рене Бауманн (Peter René Baumann, родился 5 января 1968 года), более известный под псевдонимом DJ BoBo - швейцарский певец, автор песен и музыкальный продюсер. За свою музыкальную карьеру он продал более 15 миллионов пластинок по всему миру и выпустила 12 студийных альбомов, 8 сборников и 44 сингла, некоторые из которых наметили довольно высоких строчках в чартерах различных стран. Кроме этого он получил 10 наград World Music Awards, что в сумме делает его наиболее успешным артистом Швейцарии. Стиль DJ BoBo определяют как танцевальный рэп итальянского хаус-направления, а пластику движений он заимствует у рэп-исполнителей, совмещая её со своей уникальной техникой.

Отчёт ЕАС&#58;

Exact Audio Copy V1.0 beta 3 from 29. August 2011
EAC extraction logfile from 17. June 2014, 0:21
DJ Bobo / Best Of 20 Greatest Hits
Used drive  : PLEXTOR DVDR   PX-891SA   Adapter: 2  ID: 0
Read mode               : Secure
Utilize accurate stream : Yes
Defeat audio cache      : Yes
Make use of C2 pointers : No
Read offset correction                      : 6
Overread into Lead-In and Lead-Out          : No
Fill up missing offset samples with silence : Yes
Delete leading and trailing silent blocks   : No
Null samples used in CRC calculations       : Yes
Used interface                              : Native Win32 interface for Win NT & 2000
Gap handling                                : Appended to previous track
Used output format : Internal WAV Routines
Sample format      : 44.100 Hz; 16 Bit; Stereo
TOC of the extracted CD
     Track |   Start  |  Length  | Start sector | End sector
    ---------------------------------------------------------
        1  |  0:00.00 |  3:56.09 |         0    |    17708
        2  |  3:56.09 |  4:05.57 |     17709    |    36140
        3  |  8:01.66 |  3:48.52 |     36141    |    53292
        4  | 11:50.43 |  3:32.67 |     53293    |    69259
        5  | 15:23.35 |  3:52.03 |     69260    |    86662
        6  | 19:15.38 |  3:58.72 |     86663    |   104584
        7  | 23:14.35 |  3:31.56 |    104585    |   120465
        8  | 26:46.16 |  3:45.37 |    120466    |   137377
        9  | 30:31.53 |  4:01.05 |    137378    |   155457
       10  | 34:32.58 |  4:12.52 |    155458    |   174409
       11  | 38:45.35 |  3:00.15 |    174410    |   187924
       12  | 41:45.50 |  3:54.08 |    187925    |   205482
       13  | 45:39.58 |  3:59.03 |    205483    |   223410
       14  | 49:38.61 |  3:51.04 |    223411    |   240739
       15  | 53:29.65 |  3:40.48 |    240740    |   257287
       16  | 57:10.38 |  3:19.29 |    257288    |   272241
       17  | 60:29.67 |  2:50.04 |    272242    |   284995
       18  | 63:19.71 |  3:31.64 |    284996    |   300884
       19  | 66:51.60 |  3:33.54 |    300885    |   316913
       20  | 70:25.39 |  3:19.45 |    316914    |   331883
Track  1
     Filename E:\Nafta Releases\DJ. Bobo - Best Of 20 Greatest Hits (2014)[FLAC] - Naftamusic\01 - Freedom.wav
     Pre-gap length  0:00:02.00
     Peak level 100.0 %
     Extraction speed 5.6 X
     Track quality 100.0 %
     Test CRC A0D5F3AC
     Copy CRC A0D5F3AC
     Track not present in AccurateRip database
     Copy OK
Track  2
     Filename E:\Nafta Releases\DJ. Bobo - Best Of 20 Greatest Hits (2014)[FLAC] - Naftamusic\02 - Love Is All Around.wav
     Pre-gap length  0:00:02.00
     Peak level 100.0 %
     Extraction speed 6.2 X
     Track quality 100.0 %
     Test CRC 8436CD44
     Copy CRC 8436CD44
     Track not present in AccurateRip database
     Copy OK
Track  3
     Filename E:\Nafta Releases\DJ. Bobo - Best Of 20 Greatest Hits (2014)[FLAC] - Naftamusic\03 - Everybody.wav
     Pre-gap length  0:00:01.00
     Peak level 100.0 %
     Extraction speed 6.7 X
     Track quality 100.0 %
     Test CRC 25189F11
     Copy CRC 25189F11
     Track not present in AccurateRip database
     Copy OK
Track  4
     Filename E:\Nafta Releases\DJ. Bobo - Best Of 20 Greatest Hits (2014)[FLAC] - Naftamusic\04 - Somebody Dance With Me.wav
     Pre-gap length  0:00:00.65
     Peak level 100.0 %
     Extraction speed 7.0 X
     Track quality 100.0 %
     Test CRC 25B99437
     Copy CRC 25B99437
     Track not present in AccurateRip database
     Copy OK
Track  5
     Filename E:\Nafta Releases\DJ. Bobo - Best Of 20 Greatest Hits (2014)[FLAC] - Naftamusic\05 - Pray.wav
     Pre-gap length  0:00:02.00
     Peak level 100.0 %
     Extraction speed 6.1 X
     Track quality 99.9 %
     Test CRC AA6718DB
     Copy CRC AA6718DB
     Track not present in AccurateRip database
     Copy OK
Track  6
     Filename E:\Nafta Releases\DJ. Bobo - Best Of 20 Greatest Hits (2014)[FLAC] - Naftamusic\06 - Respect Yourself.wav
     Pre-gap length  0:00:01.00
     Peak level 100.0 %
     Extraction speed 7.9 X
     Track quality 100.0 %
     Test CRC 17772E35
     Copy CRC 17772E35
     Track not present in AccurateRip database
     Copy OK
Track  7
     Filename E:\Nafta Releases\DJ. Bobo - Best Of 20 Greatest Hits (2014)[FLAC] - Naftamusic\07 - Keep On Dancing.wav
     Pre-gap length  0:00:01.00
     Peak level 100.0 %
     Extraction speed 8.1 X
     Track quality 100.0 %
     Test CRC C70AF5B2
     Copy CRC C70AF5B2
     Track not present in AccurateRip database
     Copy OK
Track  8
     Filename E:\Nafta Releases\DJ. Bobo - Best Of 20 Greatest Hits (2014)[FLAC] - Naftamusic\08 - Take Control.wav
     Pre-gap length  0:00:02.00
     Peak level 100.0 %
     Extraction speed 8.6 X
     Track quality 100.0 %
     Test CRC 718CEAAE
     Copy CRC 718CEAAE
     Track not present in AccurateRip database
     Copy OK
Track  9
     Filename E:\Nafta Releases\DJ. Bobo - Best Of 20 Greatest Hits (2014)[FLAC] - Naftamusic\09 - Let The Dream Come True.wav
     Pre-gap length  0:00:02.00
     Peak level 100.0 %
     Extraction speed 8.9 X
     Track quality 100.0 %
     Test CRC 3A43213E
     Copy CRC 3A43213E
     Track not present in AccurateRip database
     Copy OK
Track 10
     Filename E:\Nafta Releases\DJ. Bobo - Best Of 20 Greatest Hits (2014)[FLAC] - Naftamusic\10 - There Is A Party.wav
     Pre-gap length  0:00:02.00
     Peak level 100.0 %
     Extraction speed 9.3 X
     Track quality 100.0 %
     Test CRC ABFEAB2B
     Copy CRC ABFEAB2B
     Track not present in AccurateRip database
     Copy OK
Track 11
     Filename E:\Nafta Releases\DJ. Bobo - Best Of 20 Greatest Hits (2014)[FLAC] - Naftamusic\11 - Chihuahua.wav
     Pre-gap length  0:00:02.00
     Peak level 100.0 %
     Extraction speed 9.1 X
     Track quality 100.0 %
     Test CRC 392652CB
     Copy CRC 392652CB
     Track not present in AccurateRip database
     Copy OK
Track 12
     Filename E:\Nafta Releases\DJ. Bobo - Best Of 20 Greatest Hits (2014)[FLAC] - Naftamusic\12 - Where Is Your Love.wav
     Pre-gap length  0:00:01.00
     Peak level 100.0 %
     Extraction speed 9.8 X
     Track quality 100.0 %
     Test CRC 9C64875A
     Copy CRC 9C64875A
     Track not present in AccurateRip database
     Copy OK
Track 13
     Filename E:\Nafta Releases\DJ. Bobo - Best Of 20 Greatest Hits (2014)[FLAC] - Naftamusic\13 - Shadows Of The Night.wav
     Pre-gap length  0:00:02.00
     Peak level 100.0 %
     Extraction speed 8.2 X
     Track quality 99.9 %
     Test CRC 8262A23E
     Copy CRC 8262A23E
     Track not present in AccurateRip database
     Copy OK
Track 14
     Filename E:\Nafta Releases\DJ. Bobo - Best Of 20 Greatest Hits (2014)[FLAC] - Naftamusic\14 - It's My Life.wav
     Pre-gap length  0:00:01.00
     Peak level 100.0 %
     Extraction speed 8.5 X
     Track quality 99.9 %
     Test CRC E8E010B0
     Copy CRC E8E010B0
     Track not present in AccurateRip database
     Copy OK
Track 15
     Filename E:\Nafta Releases\DJ. Bobo - Best Of 20 Greatest Hits (2014)[FLAC] - Naftamusic\15 - I Believe.wav
     Pre-gap length  0:00:02.00
     Peak level 98.8 %
     Extraction speed 10.5 X
     Track quality 100.0 %
     Test CRC E4ACA519
     Copy CRC E4ACA519
     Track not present in AccurateRip database
     Copy OK
Track 16
     Filename E:\Nafta Releases\DJ. Bobo - Best Of 20 Greatest Hits (2014)[FLAC] - Naftamusic\16 - Secrets Of Love.wav
     Pre-gap length  0:00:02.00
     Peak level 98.8 %
     Extraction speed 10.7 X
     Track quality 100.0 %
     Test CRC F3443AA0
     Copy CRC F3443AA0
     Track not present in AccurateRip database
     Copy OK
Track 17
     Filename E:\Nafta Releases\DJ. Bobo - Best Of 20 Greatest Hits (2014)[FLAC] - Naftamusic\17 - Vampires Are Alive.wav
     Pre-gap length  0:00:02.00
     Peak level 98.8 %
     Extraction speed 10.5 X
     Track quality 100.0 %
     Test CRC A91B81D5
     Copy CRC A91B81D5
     Track not present in AccurateRip database
     Copy OK
Track 18
     Filename E:\Nafta Releases\DJ. Bobo - Best Of 20 Greatest Hits (2014)[FLAC] - Naftamusic\18 - Love Is The Price.wav
     Pre-gap length  0:00:02.00
     Peak level 100.0 %
     Extraction speed 11.1 X
     Track quality 100.0 %
     Test CRC 995B77FF
     Copy CRC 995B77FF
     Track not present in AccurateRip database
     Copy OK
Track 19
     Filename E:\Nafta Releases\DJ. Bobo - Best Of 20 Greatest Hits (2014)[FLAC] - Naftamusic\19 - Superstar.wav
     Pre-gap length  0:00:01.00
     Peak level 100.0 %
     Extraction speed 11.4 X
     Track quality 100.0 %
     Test CRC 5DD6B689
     Copy CRC 5DD6B689
     Track not present in AccurateRip database
     Copy OK
Track 20
     Filename E:\Nafta Releases\DJ. Bobo - Best Of 20 Greatest Hits (2014)[FLAC] - Naftamusic\20 - What A Feeling.wav
     Pre-gap length  0:00:02.00
     Peak level 98.8 %
     Extraction speed 11.5 X
     Track quality 100.0 %
     Test CRC F34AE88E
     Copy CRC F34AE88E
     Track not present in AccurateRip database
     Copy OK
None of the tracks are present in the AccurateRip database
No errors occurred
End of status report
==== Log checksum C264F4441AB5038206692B31D83ABDFD7995D840B972824AA0418EE315805866 ====

Отчёт auCDtect Task manager&#58;

PERFORMER: auCDtect Task Manager, ver. 1.6.0 RC1 build 1.6.0.1
Copyright (c) 2008-2010 y-soft. All rights reserved
http://y-soft.org
ANALYZER: auCDtect: CD records authenticity detector, version 0.8.2
Copyright (c) 2004 Oleg Berngardt. All rights reserved.
Copyright (c) 2004 Alexander Djourik. All rights reserved.
FILE: 20 - What A Feeling.flac
  Size: 25285490 Hash: 77B734A5EA897045A0FFC4C2BD8A96D7 Accuracy: -m0
  Conclusion: CDDA 99%
  Signature: 5CAFFA6E480857695A9BA777D3DD75B13F17AE99
FILE: 19 - Superstar.flac
  Size: 29045656 Hash: FC0AA88968A6751431AE5F49FD6AF08E Accuracy: -m0
  Conclusion: CDDA 100%
  Signature: 490EBFDF2E62303B6C912112ED74C86E8EEFC7FD
FILE: 18 - Love Is The Price.flac
  Size: 26964620 Hash: 3247614D01877FC54785BC96AD9449A7 Accuracy: -m0
  Conclusion: CDDA 100%
  Signature: 01EF727DD15E3AE43B9A58C06A05B416FEF850CF
FILE: 17 - Vampires Are Alive.flac
  Size: 21122591 Hash: 295A8F2ED01CAE72EBF8446E125EECD5 Accuracy: -m0
  Conclusion: CDDA 100%
  Signature: F8B6497B26074AA85331DB248C0416A86DEF368F
FILE: 16 - Secrets Of Love.flac
  Size: 25007553 Hash: BE801F4898031917F3389DBB0D305976 Accuracy: -m0
  Conclusion: CDDA 100%
  Signature: 07B3A817733FE8EB46024176239BA4EBEEAC645D
FILE: 15 - I Believe.flac
  Size: 26933466 Hash: 8F320D5B525D9C3DE53FD549B2260494 Accuracy: -m0
  Conclusion: CDDA 100%
  Signature: 4C8D995A43351CD6BC3C722921B17505148545CF
FILE: 14 - It's My Life.flac
  Size: 28716133 Hash: EF2089527E82E1D9226DEFE61105F06F Accuracy: -m0
  Conclusion: CDDA 100%
  Signature: 40366F47C535DCE6810774D1C37A310AA1832CE1
FILE: 13 - Shadows Of The Night.flac
  Size: 29289878 Hash: 66605EF04E332BAFA73E543EBA050BCC Accuracy: -m0
  Conclusion: CDDA 100%
  Signature: 3A990CFF0714E3ECB87E8F000843B748E3475494
FILE: 12 - Where Is Your Love.flac
  Size: 29246656 Hash: 16B0911B6FBAF5E82204200AA9FC4142 Accuracy: -m0
  Conclusion: CDDA 100%
  Signature: C41FC8CA472A401334F47F656F814FCEA0F4124E
FILE: 11 - Chihuahua.flac
  Size: 23122658 Hash: 8D148537B2D76095E314EE7F5F40C87A Accuracy: -m0
  Conclusion: CDDA 99%
  Signature: A33AB77A00B19158D61EE952B0E3C381F7C9D358
FILE: 10 - There Is A Party.flac
  Size: 33193733 Hash: 2BFCDAEAF9E3FDC19DBCB25788EFE2C8 Accuracy: -m0
  Conclusion: CDDA 100%
  Signature: 88E628736C6549183DAF240E665611926D803E4B
FILE: 09 - Let The Dream Come True.flac
  Size: 29744468 Hash: 7FC9E26D43D81940F3BB516DB240B870 Accuracy: -m0
  Conclusion: CDDA 100%
  Signature: B8DD7AF4E1CEA5E72CE27071386BE4A40B8185EF
FILE: 08 - Take Control.flac
  Size: 29855890 Hash: 9D886FA49CCCE7C0DCAF4AFF864FF2A4 Accuracy: -m0
  Conclusion: CDDA 100%
  Signature: B985A6A730FE53EA351626A2EB1A3C8AA4FCE4CD
FILE: 07 - Keep On Dancing.flac
  Size: 27495730 Hash: 6FDC207A6990E7C7956CF8C26B63EF6C Accuracy: -m0
  Conclusion: CDDA 99%
  Signature: 54A882F1EE059D7941F2B92B58550F3E31BEBA8E
FILE: 06 - Respect Yourself.flac
  Size: 31342449 Hash: DCF7463F82D1DEC5FD560E90BAB79E4C Accuracy: -m0
  Conclusion: CDDA 100%
  Signature: 3D00585D0D0A4DD076839B1CD4F2148485C99442
FILE: 05 - Pray.flac
  Size: 30610773 Hash: 1A6EF56392989A73941388440AB244B4 Accuracy: -m0
  Conclusion: CDDA 100%
  Signature: 8EF3554F5174C249777FF399909FD7A0B83F71A1
FILE: 04 - Somebody Dance With Me.flac
  Size: 29070448 Hash: A685ADD40634D97044471E2FD7C59463 Accuracy: -m0
  Conclusion: CDDA 100%
  Signature: 5822C926CCF7A1417B4162C6983DFB25C26D7ACB
FILE: 03 - Everybody.flac
  Size: 27309860 Hash: 8B708A8B9369DF0717980FC370095B3E Accuracy: -m0
  Conclusion: CDDA 100%
  Signature: E0D5986E09D52483269397A67E55E34961FC39B7
FILE: 02 - Love Is All Around.flac
  Size: 31813816 Hash: 30577198E5320E57C67CEFCABC95FDBB Accuracy: -m0
  Conclusion: CDDA 100%
  Signature: E5EEC90A1A20C39FB4BADD97159BC20A8F064826
FILE: 01 - Freedom.flac
  Size: 31791494 Hash: 8CD2C35890AEA9765241464D5086ADE6 Accuracy: -m0
  Conclusion: CDDA 100%
  Signature: BE631C6C691481B0BCEC1795FE7C221C2CC306A3
-
Яндекс.Метрика
Рейтинг@Mail.ru