Madonna - The Complete Studio Albums (1983-2008) [Box Set,11CD] 2012, Warner Bros.) [FLAC|Lossless]<Pop, Dance, Electronic>

 

Создавать темы 17-Дек-2014 11:52

-Madonna - The Complete Studio Albums (1983-2008) [Box Set, 11CD] (2012)- Год записи: 1983-2008
Год издания: 2012
Издатель (лейбл): Warner Bros
Номер по каталогу: 081227974046
Жанр: Pop, Dance, Electronic
Продолжительность: 10:16:06-Кодек: FLAC (*.flac)
Битрейт: Lossless
Тип рипа: (image+.cue)
Наличие сканов в раздаче: да
Источник (релизер): WEB-Данный лимитированный бокс, включает в себя все альбомы официальной дискографии Мадонны, за исключением последнего альбома "MDNA".--

Треклист&#58;

CD1&#58; Madonna (1983&#41; (8122797404A V01 TYS&#41;

Продолжительность: 00:55:53
Трек лист:
01. Lucky Star (5:38)
02. Borderline (5:21)
03. Burning Up (3:45)
04. I Know It (3:47)
05. Holiday (6:11)
06. Think Of Me (4:55)
07. Physical Attraction (6:40)
08. Everybody (6:02)
09. Burning Up (12'' Version) (6:00)
10. Lucky Star ('New' Mix) (7:15)

Отчёт ЕАС&#58;

Exact Audio Copy V1.0 beta 3 from 29. August 2011
EAC extraction logfile from 14. April 2012, 13:34
Madonna / Madonna
Used drive  : PLEXTOR DVDR   PX-810SA   Adapter: 7  ID: 0
Read mode               : Secure
Utilize accurate stream : Yes
Defeat audio cache      : Yes
Make use of C2 pointers : No
Read offset correction                      : 48
Overread into Lead-In and Lead-Out          : No
Fill up missing offset samples with silence : Yes
Delete leading and trailing silent blocks   : No
Null samples used in CRC calculations       : Yes
Used interface                              : Native Win32 interface for Win NT & 2000
Used output format              : User Defined Encoder
Selected bitrate                : 768 kBit/s
Quality                         : High
Add ID3 tag                     : No
Command line compressor         : C:\Program Files (x86)\Exact Audio Copy\FLAC\FLAC.EXE
Additional command line options : -6 -V -T "ARTIST=%artist%" -T "TITLE=%title%" -T "ALBUM=%albumtitle%" -T "DATE=%year%" -T "TRACKNUMBER=%tracknr%" -T "GENRE=%genre%" -T "COMMENT=%comment%" -T "BAND=%albuminterpret%" -T "ALBUMARTIST=%albuminterpret%" -T "COMPOSER=%composer%" %haslyrics%--tag-from-file=LYRICS="%lyricsfile%"%haslyrics% -T "DISCNUMBER=%cdnumber%" -T "TOTALDISCS=%totalcds%" -T "TOTALTRACKS=%numtracks%" %hascover%--picture="%coverfile%"%hascover% %source% -o %dest%
TOC of the extracted CD
     Track |   Start  |  Length  | Start sector | End sector
    ---------------------------------------------------------
        1  |  0:00.00 |  5:37.65 |         0    |    25339
        2  |  5:37.65 |  5:20.67 |     25340    |    49406
        3  | 10:58.57 |  3:45.25 |     49407    |    66306
        4  | 14:44.07 |  3:47.18 |     66307    |    83349
        5  | 18:31.25 |  6:10.55 |     83350    |   111154
        6  | 24:42.05 |  4:54.70 |    111155    |   133274
        7  | 29:37.00 |  6:39.45 |    133275    |   163244
        8  | 36:16.45 |  6:02.32 |    163245    |   190426
        9  | 42:19.02 |  5:59.40 |    190427    |   217391
       10  | 48:18.42 |  7:15.08 |    217392    |   250024
Range status and errors
Selected range
     Filename Z:\audio\Madonna\Madonna - Madonna.wav
     Peak level 99.8 %
     Extraction speed 7.4 X
     Range quality 100.0 %
     Test CRC 02E5559B
     Copy CRC 02E5559B
     Copy OK
No errors occurred
End of status report
==== Log checksum 96BCC4A2214B1BC9FF1D9A9C30B835483F1927D61296A732DF5E04B7EB973903 ====

Отчёт auCDtect Task manager&#58;

-----------------------
DON'T MODIFY THIS FILE
-----------------------
PERFORMER: auCDtect Task Manager, ver. 1.6.0 RC1 build 1.6.0.1
Copyright (c) 2008-2010 y-soft. All rights reserved
http://y-soft.org
ANALYZER: auCDtect: CD records authenticity detector, version 0.8.2
Copyright (c) 2004 Oleg Berngardt. All rights reserved.
Copyright (c) 2004 Alexander Djourik. All rights reserved.
FILE: Madonna - Madonna.flac
  Size: 419831827 Hash: 5404D2A982BF097EBDC361FED6D3FAE8 Accuracy: -m0
  Conclusion: CDDA 100%
  Signature: 325B9F46FBF509B0FBB29B8B030313B5B835E461

D2&#58; Like A Virgin (1984&#41; (8122797404B V01 WCX&#41;

Продолжительность: 00:50:53
Трек лист:
01. Material Girl (4:02)
02. Angel (3:56)
03. Like A Virgin (3:39)
04. Over And Over (4:12)
05. Love Don't Live Here Anymore (4:50)
06. Dress You Up (4:02)
07. Shoo-Bee-Doo (5:17)
08. Pretender (4:31)
09. Stay (4:09)
10. Like A Virgin (Extended Dance Remix) (6:10)
11. Material Girl (Extended Dance Remix) (6:07)

Отчёт ЕАС&#58;

Exact Audio Copy V1.0 beta 3 from 29. August 2011
EAC extraction logfile from 14. April 2012, 13:57
Madonna / Like A Virgin
Used drive  : PLEXTOR DVDR   PX-810SA   Adapter: 7  ID: 0
Read mode               : Secure
Utilize accurate stream : Yes
Defeat audio cache      : Yes
Make use of C2 pointers : No
Read offset correction                      : 48
Overread into Lead-In and Lead-Out          : No
Fill up missing offset samples with silence : Yes
Delete leading and trailing silent blocks   : No
Null samples used in CRC calculations       : Yes
Used interface                              : Native Win32 interface for Win NT & 2000
Used output format              : User Defined Encoder
Selected bitrate                : 768 kBit/s
Quality                         : High
Add ID3 tag                     : No
Command line compressor         : C:\Program Files (x86)\Exact Audio Copy\FLAC\FLAC.EXE
Additional command line options : -6 -V -T "ARTIST=%artist%" -T "TITLE=%title%" -T "ALBUM=%albumtitle%" -T "DATE=%year%" -T "TRACKNUMBER=%tracknr%" -T "GENRE=%genre%" -T "COMMENT=%comment%" -T "BAND=%albuminterpret%" -T "ALBUMARTIST=%albuminterpret%" -T "COMPOSER=%composer%" %haslyrics%--tag-from-file=LYRICS="%lyricsfile%"%haslyrics% -T "DISCNUMBER=%cdnumber%" -T "TOTALDISCS=%totalcds%" -T "TOTALTRACKS=%numtracks%" %hascover%--picture="%coverfile%"%hascover% %source% -o %dest%
TOC of the extracted CD
     Track |   Start  |  Length  | Start sector | End sector
    ---------------------------------------------------------
        1  |  0:00.00 |  4:01.47 |         0    |    18121
        2  |  4:01.47 |  3:56.03 |     18122    |    35824
        3  |  7:57.50 |  3:38.50 |     35825    |    52224
        4  | 11:36.25 |  4:12.32 |     52225    |    71156
        5  | 15:48.57 |  4:49.58 |     71157    |    92889
        6  | 20:38.40 |  4:01.40 |     92890    |   111004
        7  | 24:40.05 |  5:17.12 |    111005    |   134791
        8  | 29:57.17 |  4:30.38 |    134792    |   155079
        9  | 34:27.55 |  4:09.15 |    155080    |   173769
       10  | 38:36.70 |  6:09.52 |    173770    |   201496
       11  | 44:46.47 |  6:07.23 |    201497    |   229044
Range status and errors
Selected range
     Filename Z:\audio\1984 - Like A Virgin\Madonna - Like A Virgin.wav
     Peak level 99.8 %
     Extraction speed 7.2 X
     Range quality 100.0 %
     Test CRC AD27CDC3
     Copy CRC AD27CDC3
     Copy OK
No errors occurred
End of status report
==== Log checksum C3EC0FD7808EC4D2C7ABB7AFFE2EA3B8876BFDA27E8C4A6556885C1F22BEC17C ====

Отчёт auCDtect Task manager&#58;

-----------------------
DON'T MODIFY THIS FILE
-----------------------
PERFORMER: auCDtect Task Manager, ver. 1.6.0 RC1 build 1.6.0.1
Copyright (c) 2008-2010 y-soft. All rights reserved
http://y-soft.org
ANALYZER: auCDtect: CD records authenticity detector, version 0.8.2
Copyright (c) 2004 Oleg Berngardt. All rights reserved.
Copyright (c) 2004 Alexander Djourik. All rights reserved.
FILE: Madonna - Like A Virgin.flac
  Size: 380005807 Hash: DF598AE3DDC379F46FBD546BF279F1F4 Accuracy: -m0
  Conclusion: CDDA 100%
  Signature: 1CC91D799C31A7B3D2BEB250BE06ABAA5B00A5B0

CD3&#58; True Blue (1986&#41; (8122797404C.2 V01 DZQ&#41;

Продолжительность: 00:52:34
Трек лист:
01. Papa Don't Preach (4:29)
02. Open Your Heart (4:14)
03. White Heat (4:40)
04. Live To Tell (5:53)
05. Where's The Party (4:21)
06. True Blue (4:19)
07. La Isla Bonita (4:03)
08. Jimmy Jimmy (3:56)
09. Love Makes The World Go Round (4:36)
10. True Blue (The Color Mix) (6:39)
11. La Isla Bonita (Extended Remix) (5:26)

Отчёт ЕАС&#58;

Exact Audio Copy V1.0 beta 3 from 29. August 2011
EAC extraction logfile from 14. April 2012, 14:19
Madonna / True Blue
Used drive  : PLEXTOR DVDR   PX-810SA   Adapter: 7  ID: 0
Read mode               : Secure
Utilize accurate stream : Yes
Defeat audio cache      : Yes
Make use of C2 pointers : No
Read offset correction                      : 48
Overread into Lead-In and Lead-Out          : No
Fill up missing offset samples with silence : Yes
Delete leading and trailing silent blocks   : No
Null samples used in CRC calculations       : Yes
Used interface                              : Native Win32 interface for Win NT & 2000
Used output format              : User Defined Encoder
Selected bitrate                : 768 kBit/s
Quality                         : High
Add ID3 tag                     : No
Command line compressor         : C:\Program Files (x86)\Exact Audio Copy\FLAC\FLAC.EXE
Additional command line options : -6 -V -T "ARTIST=%artist%" -T "TITLE=%title%" -T "ALBUM=%albumtitle%" -T "DATE=%year%" -T "TRACKNUMBER=%tracknr%" -T "GENRE=%genre%" -T "COMMENT=%comment%" -T "BAND=%albuminterpret%" -T "ALBUMARTIST=%albuminterpret%" -T "COMPOSER=%composer%" %haslyrics%--tag-from-file=LYRICS="%lyricsfile%"%haslyrics% -T "DISCNUMBER=%cdnumber%" -T "TOTALDISCS=%totalcds%" -T "TOTALTRACKS=%numtracks%" %hascover%--picture="%coverfile%"%hascover% %source% -o %dest%
TOC of the extracted CD
     Track |   Start  |  Length  | Start sector | End sector
    ---------------------------------------------------------
        1  |  0:00.00 |  4:29.07 |         0    |    20181
        2  |  4:29.07 |  4:13.43 |     20182    |    39199
        3  |  8:42.50 |  4:40.05 |     39200    |    60204
        4  | 13:22.55 |  5:52.52 |     60205    |    86656
        5  | 19:15.32 |  4:21.10 |     86657    |   106241
        6  | 23:36.42 |  4:18.38 |    106242    |   125629
        7  | 27:55.05 |  4:02.57 |    125630    |   143836
        8  | 31:57.62 |  3:55.55 |    143837    |   161516
        9  | 35:53.42 |  4:35.68 |    161517    |   182209
       10  | 40:29.35 |  6:39.17 |    182210    |   212151
       11  | 47:08.52 |  5:25.38 |    212152    |   236564
Range status and errors
Selected range
     Filename Z:\audio\1986 - True Blue\Madonna - True Blue.wav
     Peak level 99.8 %
     Extraction speed 7.2 X
     Range quality 100.0 %
     Test CRC 89BAF4A5
     Copy CRC 89BAF4A5
     Copy OK
No errors occurred
End of status report
==== Log checksum 0AFE6E6602AAC211B3F7595704F837CAB6C87D46AC0DD51BA0E16A9760CDD1D6 ====

Отчёт auCDtect Task manager&#58;

-----------------------
DON'T MODIFY THIS FILE
-----------------------
PERFORMER: auCDtect Task Manager, ver. 1.6.0 RC1 build 1.6.0.1
Copyright (c) 2008-2010 y-soft. All rights reserved
http://y-soft.org
ANALYZER: auCDtect: CD records authenticity detector, version 0.8.2
Copyright (c) 2004 Oleg Berngardt. All rights reserved.
Copyright (c) 2004 Alexander Djourik. All rights reserved.
FILE: Madonna - True Blue.flac
  Size: 398413670 Hash: 4F06850A510E782CB620B725A3C395D6 Accuracy: -m0
  Conclusion: CDDA 100%
  Signature: D2F554D42D297FC3F835AAA2AC185D8D4C449AD9

CD4&#58; Like A Prayer (1989&#41; (8122797404D V01 KRJ&#41;

Продолжительность: 00:51:14
Трек лист:
01. Like A Prayer (5:42)
02. Express Yourself (4:39)
03. Love Song (4:53)
04. Till Death Do Us Part (5:18)
05. Promise To Try (3:38)
06. Cherish (5:04)
07. Dear Jessie (4:21)
08. Oh Father (4:59)
09. Keep It Together (5:03)
10. Spanish Eyes (5:18)
11. Act Of Contrition (2:20)

Отчёт ЕАС&#58;

Exact Audio Copy V1.0 beta 3 from 29. August 2011
EAC extraction logfile from 14. April 2012, 14:39
Madonna / Like A Prayer
Used drive  : PLEXTOR DVDR   PX-810SA   Adapter: 7  ID: 0
Read mode               : Secure
Utilize accurate stream : Yes
Defeat audio cache      : Yes
Make use of C2 pointers : No
Read offset correction                      : 48
Overread into Lead-In and Lead-Out          : No
Fill up missing offset samples with silence : Yes
Delete leading and trailing silent blocks   : No
Null samples used in CRC calculations       : Yes
Used interface                              : Native Win32 interface for Win NT & 2000
Used output format              : User Defined Encoder
Selected bitrate                : 768 kBit/s
Quality                         : High
Add ID3 tag                     : No
Command line compressor         : C:\Program Files (x86)\Exact Audio Copy\FLAC\FLAC.EXE
Additional command line options : -6 -V -T "ARTIST=%artist%" -T "TITLE=%title%" -T "ALBUM=%albumtitle%" -T "DATE=%year%" -T "TRACKNUMBER=%tracknr%" -T "GENRE=%genre%" -T "COMMENT=%comment%" -T "BAND=%albuminterpret%" -T "ALBUMARTIST=%albuminterpret%" -T "COMPOSER=%composer%" %haslyrics%--tag-from-file=LYRICS="%lyricsfile%"%haslyrics% -T "DISCNUMBER=%cdnumber%" -T "TOTALDISCS=%totalcds%" -T "TOTALTRACKS=%numtracks%" %hascover%--picture="%coverfile%"%hascover% %source% -o %dest%
TOC of the extracted CD
     Track |   Start  |  Length  | Start sector | End sector
    ---------------------------------------------------------
        1  |  0:00.00 |  5:41.45 |         0    |    25619
        2  |  5:41.45 |  4:39.28 |     25620    |    46572
        3  | 10:20.73 |  4:52.45 |     46573    |    68517
        4  | 15:13.43 |  5:18.32 |     68518    |    92399
        5  | 20:32.00 |  3:38.08 |     92400    |   108757
        6  | 24:10.08 |  5:04.10 |    108758    |   131567
        7  | 29:14.18 |  4:20.55 |    131568    |   151122
        8  | 33:34.73 |  4:58.67 |    151123    |   173539
        9  | 38:33.65 |  5:03.13 |    173540    |   196277
       10  | 43:37.03 |  5:17.57 |    196278    |   220109
       11  | 48:54.60 |  2:19.40 |    220110    |   230574
Range status and errors
Selected range
     Filename Z:\audio\1989 - Like A Prayer\Madonna - Like A Prayer.wav
     Peak level 100.0 %
     Extraction speed 7.1 X
     Range quality 99.9 %
     Test CRC 7618641E
     Copy CRC 7618641E
     Copy OK
No errors occurred
End of status report
==== Log checksum 5F359AA6CCEF1C25ED7A92A0795F4EAC36EA4B745B37EFC5742E06B390A5DDFE ====

Отчёт auCDtect Task manager&#58;

-----------------------
DON'T MODIFY THIS FILE
-----------------------
PERFORMER: auCDtect Task Manager, ver. 1.6.0 RC1 build 1.6.0.1
Copyright (c) 2008-2010 y-soft. All rights reserved
http://y-soft.org
ANALYZER: auCDtect: CD records authenticity detector, version 0.8.2
Copyright (c) 2004 Oleg Berngardt. All rights reserved.
Copyright (c) 2004 Alexander Djourik. All rights reserved.
FILE: Madonna - Like A Prayer.flac
  Size: 333147002 Hash: 905F686F5EFE28D9C33B0B9FA0B7D8EF Accuracy: -m0
  Conclusion: MPEG 95%
  Signature: 3C1FDEE4BEC311E2177ABD678A9D6BE273E3314C

CD5&#58; Erotica (1992&#41; (8122797404E.2 V01 WLN&#41;

Продолжительность: 01:15:22
Трек лист:
01. Erotica (5:19)
02. Fever (5:01)
03. Bye Bye Baby (3:56)
04. Deeper And Deeper (5:34)
05. Where Life Begins (5:58)
06. Bad Girl (5:23)
07. Waiting (5:47)
08. Thief Of Hearts (4:51)
09. Words (5:56)
10. Rain (5:25)
11. Why's It So Hard (5:23)
12. In This Life (6:23)
13. Did You Do It? (4:54)
14. Secret Garden (5:32)

Отчёт ЕАС&#58;

Exact Audio Copy V1.0 beta 3 from 29. August 2011
EAC extraction logfile from 14. April 2012, 15:04
Madonna / Erotica
Used drive  : PLEXTOR DVDR   PX-810SA   Adapter: 7  ID: 0
Read mode               : Secure
Utilize accurate stream : Yes
Defeat audio cache      : Yes
Make use of C2 pointers : No
Read offset correction                      : 48
Overread into Lead-In and Lead-Out          : No
Fill up missing offset samples with silence : Yes
Delete leading and trailing silent blocks   : No
Null samples used in CRC calculations       : Yes
Used interface                              : Native Win32 interface for Win NT & 2000
Used output format              : User Defined Encoder
Selected bitrate                : 768 kBit/s
Quality                         : High
Add ID3 tag                     : No
Command line compressor         : C:\Program Files (x86)\Exact Audio Copy\FLAC\FLAC.EXE
Additional command line options : -6 -V -T "ARTIST=%artist%" -T "TITLE=%title%" -T "ALBUM=%albumtitle%" -T "DATE=%year%" -T "TRACKNUMBER=%tracknr%" -T "GENRE=%genre%" -T "COMMENT=%comment%" -T "BAND=%albuminterpret%" -T "ALBUMARTIST=%albuminterpret%" -T "COMPOSER=%composer%" %haslyrics%--tag-from-file=LYRICS="%lyricsfile%"%haslyrics% -T "DISCNUMBER=%cdnumber%" -T "TOTALDISCS=%totalcds%" -T "TOTALTRACKS=%numtracks%" %hascover%--picture="%coverfile%"%hascover% %source% -o %dest%
TOC of the extracted CD
     Track |   Start  |  Length  | Start sector | End sector
    ---------------------------------------------------------
        1  |  0:00.00 |  5:19.30 |         0    |    23954
        2  |  5:19.30 |  5:00.60 |     23955    |    46514
        3  | 10:20.15 |  3:56.17 |     46515    |    64231
        4  | 14:16.32 |  5:33.48 |     64232    |    89254
        5  | 19:50.05 |  5:57.47 |     89255    |   116076
        6  | 25:47.52 |  5:23.23 |    116077    |   140324
        7  | 31:11.00 |  5:46.60 |    140325    |   166334
        8  | 36:57.60 |  4:51.27 |    166335    |   188186
        9  | 41:49.12 |  5:56.00 |    188187    |   214886
       10  | 47:45.12 |  5:24.48 |    214887    |   239234
       11  | 53:09.60 |  5:23.32 |    239235    |   263491
       12  | 58:33.17 |  6:23.03 |    263492    |   292219
       13  | 64:56.20 |  4:54.17 |    292220    |   314286
       14  | 69:50.37 |  5:32.13 |    314287    |   339199
Range status and errors
Selected range
     Filename Z:\audio\1992 - Erotica\Madonna - Erotica.wav
     Peak level 99.7 %
     Extraction speed 8.5 X
     Range quality 100.0 %
     Test CRC 8702B828
     Copy CRC 8702B828
     Copy OK
No errors occurred
End of status report
==== Log checksum 6618E4C44F32828FDFF4FB93A50AAD9EF05589768EF6C012F02E0CD3F64291AA ====

Отчёт auCDtect Task manager&#58;

-----------------------
DON'T MODIFY THIS FILE
-----------------------
PERFORMER: auCDtect Task Manager, ver. 1.6.0 RC1 build 1.6.0.1
Copyright (c) 2008-2010 y-soft. All rights reserved
http://y-soft.org
ANALYZER: auCDtect: CD records authenticity detector, version 0.8.2
Copyright (c) 2004 Oleg Berngardt. All rights reserved.
Copyright (c) 2004 Alexander Djourik. All rights reserved.
FILE: Madonna - Erotica.flac
  Size: 538909535 Hash: F47B1B7C31AFEB8676746DDECF29E4C5 Accuracy: -m0
  Conclusion: CDDA 100%
  Signature: 8F1912B1DA860CB5486027B8DE8E9277B078D700

CD6&#58; Bedtime Stories (1994&#41; (8122797404F V01 FKR&#41;

Продолжительность: 00:51:48
Трек лист:
01. Survival (3:31)
02. Secret (5:05)
03. I'd Rather Be Your Lover (4:40)
04. Don't Stop (4:38)
05. Inside of Me (4:12)
06. Human Nature (4:54)
07. Forbidden Love (4:09)
08. Love Tried to Welcome Me (5:22)
09. Sanctuary (5:03)
10. Bedtime Story (4:53)
11. Take a Bow (5:22)

Отчёт ЕАС&#58;

Exact Audio Copy V1.0 beta 3 from 29. August 2011
EAC extraction logfile from 14. April 2012, 15:23
Madonna / Bedtime Stories
Used drive  : PLEXTOR DVDR   PX-810SA   Adapter: 7  ID: 0
Read mode               : Secure
Utilize accurate stream : Yes
Defeat audio cache      : Yes
Make use of C2 pointers : No
Read offset correction                      : 48
Overread into Lead-In and Lead-Out          : No
Fill up missing offset samples with silence : Yes
Delete leading and trailing silent blocks   : No
Null samples used in CRC calculations       : Yes
Used interface                              : Native Win32 interface for Win NT & 2000
Used output format              : User Defined Encoder
Selected bitrate                : 768 kBit/s
Quality                         : High
Add ID3 tag                     : No
Command line compressor         : C:\Program Files (x86)\Exact Audio Copy\FLAC\FLAC.EXE
Additional command line options : -6 -V -T "ARTIST=%artist%" -T "TITLE=%title%" -T "ALBUM=%albumtitle%" -T "DATE=%year%" -T "TRACKNUMBER=%tracknr%" -T "GENRE=%genre%" -T "COMMENT=%comment%" -T "BAND=%albuminterpret%" -T "ALBUMARTIST=%albuminterpret%" -T "COMPOSER=%composer%" %haslyrics%--tag-from-file=LYRICS="%lyricsfile%"%haslyrics% -T "DISCNUMBER=%cdnumber%" -T "TOTALDISCS=%totalcds%" -T "TOTALTRACKS=%numtracks%" %hascover%--picture="%coverfile%"%hascover% %source% -o %dest%
TOC of the extracted CD
     Track |   Start  |  Length  | Start sector | End sector
    ---------------------------------------------------------
        1  |  0:00.00 |  3:31.27 |         0    |    15851
        2  |  3:31.27 |  5:05.10 |     15852    |    38736
        3  |  8:36.37 |  4:39.48 |     38737    |    59709
        4  | 13:16.10 |  4:38.17 |     59710    |    80576
        5  | 17:54.27 |  4:11.60 |     80577    |    99461
        6  | 22:06.12 |  4:53.73 |     99462    |   121509
        7  | 27:00.10 |  4:08.72 |    121510    |   140181
        8  | 31:09.07 |  5:21.53 |    140182    |   164309
        9  | 36:30.60 |  5:02.65 |    164310    |   187024
       10  | 41:33.50 |  4:53.02 |    187025    |   209001
       11  | 46:26.52 |  5:21.40 |    209002    |   233116
Range status and errors
Selected range
     Filename Z:\audio\1994 - Bedtime Stories\Madonna - Bedtime Stories.wav
     Peak level 99.8 %
     Extraction speed 7.2 X
     Range quality 100.0 %
     Copy CRC 24FB312B
     Copy OK
No errors occurred
End of status report
==== Log checksum 7160BBE61434A49BAD95047E23CA49D8711EE6C62DEC97C03485BD444C556216 ====

Отчёт auCDtect Task manager&#58;

-----------------------
DON'T MODIFY THIS FILE
-----------------------
PERFORMER: auCDtect Task Manager, ver. 1.6.0 RC1 build 1.6.0.1
Copyright (c) 2008-2010 y-soft. All rights reserved
http://y-soft.org
ANALYZER: auCDtect: CD records authenticity detector, version 0.8.2
Copyright (c) 2004 Oleg Berngardt. All rights reserved.
Copyright (c) 2004 Alexander Djourik. All rights reserved.
FILE: Madonna - Bedtime Stories.flac
  Size: 354501776 Hash: 63F4D2D27FE268BCC9C19B1A25BCB6A8 Accuracy: -m0
  Conclusion: CDDA 100%
  Signature: E16904B8D7BB3CB0B45F3099601DD68911CF0A8A

CD7&#58; Ray Of Light (1998&#41; (8122797404G V01 DIL&#41;

Продолжительность: 01:06:58
Трек лист:
01. Drowned World/Substitute For Love (5:09)
02. Swim (5:01)
03. Ray Of Light (5:21)
04. Candy Perfume Girl (4:37)
05. Skin (6:22)
06. Nothing Really Matters (4:27)
07. Sky Fits Heaven (4:48)
08. Shanti/Ashtangi (4:29)
09. Frozen (6:13)
10. The Power Of Good-Bye (4:12)
11. To Have And Not To Hold (5:23)
12. Little Star (5:18)
13. Mer Girl (5:32)

Отчёт ЕАС&#58;

Exact Audio Copy V1.0 beta 3 from 29. August 2011
EAC extraction logfile from 14. April 2012, 16:07
Madonna / Ray Of Light
Used drive  : PLEXTOR DVDR   PX-810SA   Adapter: 7  ID: 0
Read mode               : Secure
Utilize accurate stream : Yes
Defeat audio cache      : Yes
Make use of C2 pointers : No
Read offset correction                      : 48
Overread into Lead-In and Lead-Out          : No
Fill up missing offset samples with silence : Yes
Delete leading and trailing silent blocks   : No
Null samples used in CRC calculations       : Yes
Used interface                              : Native Win32 interface for Win NT & 2000
Used output format              : User Defined Encoder
Selected bitrate                : 768 kBit/s
Quality                         : High
Add ID3 tag                     : No
Command line compressor         : C:\Program Files (x86)\Exact Audio Copy\FLAC\FLAC.EXE
Additional command line options : -6 -V -T "ARTIST=%artist%" -T "TITLE=%title%" -T "ALBUM=%albumtitle%" -T "DATE=%year%" -T "TRACKNUMBER=%tracknr%" -T "GENRE=%genre%" -T "COMMENT=%comment%" -T "BAND=%albuminterpret%" -T "ALBUMARTIST=%albuminterpret%" -T "COMPOSER=%composer%" %haslyrics%--tag-from-file=LYRICS="%lyricsfile%"%haslyrics% -T "DISCNUMBER=%cdnumber%" -T "TOTALDISCS=%totalcds%" -T "TOTALTRACKS=%numtracks%" %hascover%--picture="%coverfile%"%hascover% %source% -o %dest%
TOC of the extracted CD
     Track |   Start  |  Length  | Start sector | End sector
    ---------------------------------------------------------
        1  |  0:00.00 |  5:08.73 |         0    |    23172
        2  |  5:08.73 |  5:00.45 |     23173    |    45717
        3  | 10:09.43 |  5:20.52 |     45718    |    69769
        4  | 15:30.20 |  4:36.58 |     69770    |    90527
        5  | 20:07.03 |  6:21.50 |     90528    |   119152
        6  | 26:28.53 |  4:26.57 |    119153    |   139159
        7  | 30:55.35 |  4:47.68 |    139160    |   160752
        8  | 35:43.28 |  4:29.02 |    160753    |   180929
        9  | 40:12.30 |  6:12.53 |    180930    |   208882
       10  | 46:25.08 |  4:12.22 |    208883    |   227804
       11  | 50:37.30 |  5:22.68 |    227805    |   252022
       12  | 56:00.23 |  5:18.35 |    252023    |   275907
       13  | 61:18.58 |  5:31.60 |    275908    |   300792
Range status and errors
Selected range
     Filename Z:\audio\1998 - Ray Of Light\Madonna - Ray Of Light.wav
     Peak level 99.8 %
     Extraction speed 8.2 X
     Range quality 99.9 %
     Test CRC 1C2DB254
     Copy CRC 1C2DB254
     Copy OK
No errors occurred
End of status report
==== Log checksum AF4B93FE8476C4F22769DD716A40075F22088F8B96D18EADD8FF1C18088E80AD ====

Отчёт auCDtect Task manager&#58;

-----------------------
DON'T MODIFY THIS FILE
-----------------------
PERFORMER: auCDtect Task Manager, ver. 1.6.0 RC1 build 1.6.0.1
Copyright (c) 2008-2010 y-soft. All rights reserved
http://y-soft.org
ANALYZER: auCDtect: CD records authenticity detector, version 0.8.2
Copyright (c) 2004 Oleg Berngardt. All rights reserved.
Copyright (c) 2004 Alexander Djourik. All rights reserved.
FILE: Madonna - Ray Of Light.flac
  Size: 415607083 Hash: 212953B2B9D0727D9F504CD90BE6EBDB Accuracy: -m0
  Conclusion: CDDA 99%
  Signature: 6702E140FACD64E0AAD5FB8F4CB8AB0ACE260C79

CD8&#58; Music (2000&#41; (8122797404H V01 UBD&#41;

Продолжительность: 00:49:18
Трек лист:
01. Music (3:45)
02. Impressive Instant (3:38)
03. Runaway Lover (4:47)
04. I Deserve It (4:24)
05. Amazing (3:43)
06. Nobody's Perfect (4:59)
07. Don't Tell Me (4:40)
08. What It Feels Like For A Girl (4:44)
09. Paradise (Not For Me) (6:34)
10. Gone (3:29)
11. American Pie (4:36)

Отчёт ЕАС&#58;

Exact Audio Copy V1.0 beta 3 from 29. August 2011
EAC extraction logfile from 14. April 2012, 16:59
Madonna / Music
Used drive  : PLEXTOR DVDR   PX-810SA   Adapter: 7  ID: 0
Read mode               : Secure
Utilize accurate stream : Yes
Defeat audio cache      : Yes
Make use of C2 pointers : No
Read offset correction                      : 48
Overread into Lead-In and Lead-Out          : No
Fill up missing offset samples with silence : Yes
Delete leading and trailing silent blocks   : No
Null samples used in CRC calculations       : Yes
Used interface                              : Native Win32 interface for Win NT & 2000
Used output format              : User Defined Encoder
Selected bitrate                : 768 kBit/s
Quality                         : High
Add ID3 tag                     : No
Command line compressor         : C:\Program Files (x86)\Exact Audio Copy\FLAC\FLAC.EXE
Additional command line options : -6 -V -T "ARTIST=%artist%" -T "TITLE=%title%" -T "ALBUM=%albumtitle%" -T "DATE=%year%" -T "TRACKNUMBER=%tracknr%" -T "GENRE=%genre%" -T "COMMENT=%comment%" -T "BAND=%albuminterpret%" -T "ALBUMARTIST=%albuminterpret%" -T "COMPOSER=%composer%" %haslyrics%--tag-from-file=LYRICS="%lyricsfile%"%haslyrics% -T "DISCNUMBER=%cdnumber%" -T "TOTALDISCS=%totalcds%" -T "TOTALTRACKS=%numtracks%" %hascover%--picture="%coverfile%"%hascover% %source% -o %dest%
TOC of the extracted CD
     Track |   Start  |  Length  | Start sector | End sector
    ---------------------------------------------------------
        1  |  0:00.00 |  3:45.32 |         0    |    16906
        2  |  3:45.32 |  3:37.43 |     16907    |    33224
        3  |  7:23.00 |  4:47.17 |     33225    |    54766
        4  | 12:10.17 |  4:23.43 |     54767    |    74534
        5  | 16:33.60 |  3:43.15 |     74535    |    91274
        6  | 20:17.00 |  4:58.70 |     91275    |   113694
        7  | 25:15.70 |  4:40.00 |    113695    |   134694
        8  | 29:55.70 |  4:43.67 |    134695    |   155986
        9  | 34:39.62 |  6:33.40 |    155987    |   185501
       10  | 41:13.27 |  3:29.05 |    185502    |   201181
       11  | 44:42.32 |  4:36.20 |    201182    |   221901
Range status and errors
Selected range
     Filename Z:\audio\2000 - Music\Madonna - Music.wav
     Peak level 100.0 %
     Extraction speed 7.1 X
     Range quality 100.0 %
     Test CRC 7AB10DCC
     Copy CRC 7AB10DCC
     Copy OK
No errors occurred
End of status report
==== Log checksum DA69430D236310F7E54E1CAA6447171F250A93E4C2864592E41A83E87AB03108 ====

Отчёт auCDtect Task manager&#58;

-----------------------
DON'T MODIFY THIS FILE
-----------------------
PERFORMER: auCDtect Task Manager, ver. 1.6.0 RC1 build 1.6.0.1
Copyright (c) 2008-2010 y-soft. All rights reserved
http://y-soft.org
ANALYZER: auCDtect: CD records authenticity detector, version 0.8.2
Copyright (c) 2004 Oleg Berngardt. All rights reserved.
Copyright (c) 2004 Alexander Djourik. All rights reserved.
FILE: Madonna - Music.flac
  Size: 337844264 Hash: CE86601E5A7F8329DBD6B7803EB5A7D5 Accuracy: -m0
  Conclusion: CDDA 100%
  Signature: C2E4645C3DB6664FF80EE2FF2632C2BE62669946

CD9&#58; American Life (2003&#41; (8122797404I.2 V01 OAJ&#41;

Продолжительность: 00:49:37
Трек лист:
01. American Life (4:58)
02. Hollywood (4:24)
03. I'm So Stupid (4:09)
04. Love Profusion (3:38)
05. Nobody Knows Me (4:39)
06. Nothing Fails (4:49)
07. Intervention (4:55)
08. X-Static Process (3:49)
09. Mother And Father (4:33)
10. Die Another Day (4:38)
11. Easy Ride (5:05)

Отчёт ЕАС&#58;

Exact Audio Copy V1.0 beta 3 from 29. August 2011
EAC extraction logfile from 14. April 2012, 17:17
Madonna / American Life
Used drive  : PLEXTOR DVDR   PX-810SA   Adapter: 7  ID: 0
Read mode               : Secure
Utilize accurate stream : Yes
Defeat audio cache      : Yes
Make use of C2 pointers : No
Read offset correction                      : 48
Overread into Lead-In and Lead-Out          : No
Fill up missing offset samples with silence : Yes
Delete leading and trailing silent blocks   : No
Null samples used in CRC calculations       : Yes
Used interface                              : Native Win32 interface for Win NT & 2000
Used output format              : User Defined Encoder
Selected bitrate                : 768 kBit/s
Quality                         : High
Add ID3 tag                     : No
Command line compressor         : C:\Program Files (x86)\Exact Audio Copy\FLAC\FLAC.EXE
Additional command line options : -6 -V -T "ARTIST=%artist%" -T "TITLE=%title%" -T "ALBUM=%albumtitle%" -T "DATE=%year%" -T "TRACKNUMBER=%tracknr%" -T "GENRE=%genre%" -T "COMMENT=%comment%" -T "BAND=%albuminterpret%" -T "ALBUMARTIST=%albuminterpret%" -T "COMPOSER=%composer%" %haslyrics%--tag-from-file=LYRICS="%lyricsfile%"%haslyrics% -T "DISCNUMBER=%cdnumber%" -T "TOTALDISCS=%totalcds%" -T "TOTALTRACKS=%numtracks%" %hascover%--picture="%coverfile%"%hascover% %source% -o %dest%
TOC of the extracted CD
     Track |   Start  |  Length  | Start sector | End sector
    ---------------------------------------------------------
        1  |  0:00.00 |  4:57.63 |         0    |    22337
        2  |  4:57.63 |  4:24.30 |     22338    |    42167
        3  |  9:22.18 |  4:08.41 |     42168    |    60808
        4  | 13:30.59 |  3:37.66 |     60809    |    77149
        5  | 17:08.50 |  4:39.31 |     77150    |    98105
        6  | 21:48.06 |  4:48.52 |     98106    |   119757
        7  | 26:36.58 |  4:54.46 |    119758    |   141853
        8  | 31:31.29 |  3:49.23 |    141854    |   159051
        9  | 35:20.52 |  4:33.30 |    159052    |   179556
       10  | 39:54.07 |  4:38.32 |    179557    |   200438
       11  | 44:32.39 |  5:05.11 |    200439    |   223324
Range status and errors
Selected range
     Filename Z:\audio\2003 - American Life\Madonna - American Life.wav
     Peak level 100.0 %
     Extraction speed 7.1 X
     Range quality 100.0 %
     Test CRC 7024D207
     Copy CRC 7024D207
     Copy OK
No errors occurred
End of status report
==== Log checksum 9D4ED0E70A07495F0352178F6C3860B3D7478FF828607C66506E5CFA846059B9 ====

Отчёт auCDtect Task manager&#58;

-----------------------
DON'T MODIFY THIS FILE
-----------------------
PERFORMER: auCDtect Task Manager, ver. 1.6.0 RC1 build 1.6.0.1
Copyright (c) 2008-2010 y-soft. All rights reserved
http://y-soft.org
ANALYZER: auCDtect: CD records authenticity detector, version 0.8.2
Copyright (c) 2004 Oleg Berngardt. All rights reserved.
Copyright (c) 2004 Alexander Djourik. All rights reserved.
FILE: Madonna - American Life.flac
  Size: 347504675 Hash: A47BCEE2FA1B8AB7CA352A3801470CAE Accuracy: -m0
  Conclusion: CDDA 100%
  Signature: 38D19DBB058E2090AB515D4B4A77560C9165C2EB

CD10&#58; Confessions On A Dance Floor (2005&#41; (8122797404J V01 BHQ&#41;

Продолжительность: 00:56:32
Трек лист:
01. Hung Up (5:36)
02. Get Together (5:31)
03. Sorry (4:43)
04. Future Lovers (4:51)
05. I Love New York (4:12)
06. Let It Will Be (4:19)
07. Forbidden Love (4:22)
08. Jump (3:46)
09. How High (4:40)
10. Isaac (6:04)
11. Push (3:57)
12. Like It Or Not (4:32)

Отчёт ЕАС&#58;

Exact Audio Copy V1.0 beta 3 from 29. August 2011
EAC extraction logfile from 14. April 2012, 17:42
Madonna / Confessions On A Dance Floor
Used drive  : PLEXTOR DVDR   PX-810SA   Adapter: 7  ID: 0
Read mode               : Secure
Utilize accurate stream : Yes
Defeat audio cache      : Yes
Make use of C2 pointers : No
Read offset correction                      : 48
Overread into Lead-In and Lead-Out          : No
Fill up missing offset samples with silence : Yes
Delete leading and trailing silent blocks   : No
Null samples used in CRC calculations       : Yes
Used interface                              : Native Win32 interface for Win NT & 2000
Used output format              : User Defined Encoder
Selected bitrate                : 768 kBit/s
Quality                         : High
Add ID3 tag                     : No
Command line compressor         : C:\Program Files (x86)\Exact Audio Copy\FLAC\FLAC.EXE
Additional command line options : -6 -V -T "ARTIST=%artist%" -T "TITLE=%title%" -T "ALBUM=%albumtitle%" -T "DATE=%year%" -T "TRACKNUMBER=%tracknr%" -T "GENRE=%genre%" -T "COMMENT=%comment%" -T "BAND=%albuminterpret%" -T "ALBUMARTIST=%albuminterpret%" -T "COMPOSER=%composer%" %haslyrics%--tag-from-file=LYRICS="%lyricsfile%"%haslyrics% -T "DISCNUMBER=%cdnumber%" -T "TOTALDISCS=%totalcds%" -T "TOTALTRACKS=%numtracks%" %hascover%--picture="%coverfile%"%hascover% %source% -o %dest%
TOC of the extracted CD
     Track |   Start  |  Length  | Start sector | End sector
    ---------------------------------------------------------
        1  |  0:00.00 |  5:36.23 |         0    |    25222
        2  |  5:36.23 |  5:30.38 |     25223    |    50010
        3  | 11:06.61 |  4:43.20 |     50011    |    71255
        4  | 15:50.06 |  4:51.21 |     71256    |    93101
        5  | 20:41.27 |  4:11.47 |     93102    |   111973
        6  | 24:52.74 |  4:18.39 |    111974    |   131362
        7  | 29:11.38 |  4:22.16 |    131363    |   151028
        8  | 33:33.54 |  3:46.33 |    151029    |   168011
        9  | 37:20.12 |  4:40.04 |    168012    |   189015
       10  | 42:00.16 |  6:03.44 |    189016    |   216284
       11  | 48:03.60 |  3:57.02 |    216285    |   234061
       12  | 52:00.62 |  4:31.69 |    234062    |   254455
Range status and errors
Selected range
     Filename Z:\audio\2005 - Confessions On A Dance Floor\Madonna - Confessions On A Dance Floor.wav
     Peak level 100.0 %
     Extraction speed 7.5 X
     Range quality 99.9 %
     Test CRC 7B7D489B
     Copy CRC 7B7D489B
     Copy OK
No errors occurred
End of status report
==== Log checksum 1E492CBA8A77413F6E123014876B90F69A23EB46B7EA6622FDE1C05CD0A3409E ====

Отчёт auCDtect Task manager&#58;

-----------------------
DON'T MODIFY THIS FILE
-----------------------
PERFORMER: auCDtect Task Manager, ver. 1.6.0 RC1 build 1.6.0.1
Copyright (c) 2008-2010 y-soft. All rights reserved
http://y-soft.org
ANALYZER: auCDtect: CD records authenticity detector, version 0.8.2
Copyright (c) 2004 Oleg Berngardt. All rights reserved.
Copyright (c) 2004 Alexander Djourik. All rights reserved.
FILE: Madonna - Confessions On A Dance Floor.flac
  Size: 445068329 Hash: DEF3F5EEFFE71A4F3D4F2059B41F96B7 Accuracy: -m0
  Conclusion: CDDA 100%
  Signature: FB42F8579CADF12F4A54F6754B041D445C137208

CD11&#58; Hard Candy (2008&#41; (8122797404K V01 WBM&#41;

Продолжительность: 00:56:19
Трек лист:
01. Candy shop (4:16)
02. 4 minutes (feat. Justin Timberlake & Timbaland) (4:04)
03. Give it 2 me (4:48)
04. Heartbeat (4:03)
05. Miles away (4:49)
06. She's not me (6:05)
07. Incredible (6:20)
08. Beat goes on (feat. Kanye West) (4:27)
09. Dance 2night (5:03)
10. Spanish lesson (3:38)
11. Devil wouldn't recognize you (5:09)
12. Voices (3:39)

Отчёт ЕАС&#58;

Exact Audio Copy V1.0 beta 3 from 29. August 2011
EAC extraction logfile from 14. April 2012, 18:05
Madonna / Hard Candy
Used drive  : PLEXTOR DVDR   PX-810SA   Adapter: 7  ID: 0
Read mode               : Secure
Utilize accurate stream : Yes
Defeat audio cache      : Yes
Make use of C2 pointers : No
Read offset correction                      : 48
Overread into Lead-In and Lead-Out          : No
Fill up missing offset samples with silence : Yes
Delete leading and trailing silent blocks   : No
Null samples used in CRC calculations       : Yes
Used interface                              : Native Win32 interface for Win NT & 2000
Used output format              : User Defined Encoder
Selected bitrate                : 768 kBit/s
Quality                         : High
Add ID3 tag                     : No
Command line compressor         : C:\Program Files (x86)\Exact Audio Copy\FLAC\FLAC.EXE
Additional command line options : -6 -V -T "ARTIST=%artist%" -T "TITLE=%title%" -T "ALBUM=%albumtitle%" -T "DATE=%year%" -T "TRACKNUMBER=%tracknr%" -T "GENRE=%genre%" -T "COMMENT=%comment%" -T "BAND=%albuminterpret%" -T "ALBUMARTIST=%albuminterpret%" -T "COMPOSER=%composer%" %haslyrics%--tag-from-file=LYRICS="%lyricsfile%"%haslyrics% -T "DISCNUMBER=%cdnumber%" -T "TOTALDISCS=%totalcds%" -T "TOTALTRACKS=%numtracks%" %hascover%--picture="%coverfile%"%hascover% %source% -o %dest%
TOC of the extracted CD
     Track |   Start  |  Length  | Start sector | End sector
    ---------------------------------------------------------
        1  |  0:00.00 |  4:15.58 |         0    |    19182
        2  |  4:15.58 |  4:03.66 |     19183    |    37473
        3  |  8:19.49 |  4:47.68 |     37474    |    59066
        4  | 13:07.42 |  4:03.28 |     59067    |    77319
        5  | 17:10.70 |  4:48.69 |     77320    |    98988
        6  | 21:59.64 |  6:04.38 |     98989    |   126326
        7  | 28:04.27 |  6:19.38 |    126327    |   154789
        8  | 34:23.65 |  4:26.67 |    154790    |   174806
        9  | 38:50.57 |  5:03.07 |    174807    |   197538
       10  | 43:53.64 |  3:37.45 |    197539    |   213858
       11  | 47:31.34 |  5:08.57 |    213859    |   237015
       12  | 52:40.16 |  3:39.35 |    237016    |   253475
Range status and errors
Selected range
     Filename Z:\audio\2008 - Hard Candy\Madonna - Hard Candy.wav
     Peak level 99.9 %
     Extraction speed 7.5 X
     Range quality 100.0 %
     Test CRC 143BA998
     Copy CRC 143BA998
     Copy OK
No errors occurred
End of status report
==== Log checksum 470557C03B5FAAFBBD2C5E6659319BF21612FAE559AE7BD17C43DA82D0328EA2 ====

Отчёт auCDtect Task manager&#58;

-----------------------
DON'T MODIFY THIS FILE
-----------------------
PERFORMER: auCDtect Task Manager, ver. 1.6.0 RC1 build 1.6.0.1
Copyright (c) 2008-2010 y-soft. All rights reserved
http://y-soft.org
ANALYZER: auCDtect: CD records authenticity detector, version 0.8.2
Copyright (c) 2004 Oleg Berngardt. All rights reserved.
Copyright (c) 2004 Alexander Djourik. All rights reserved.
FILE: Madonna - Hard Candy.flac
  Size: 417884693 Hash: 1972B7A8A1AD5F4F35351AC7CE82ECC3 Accuracy: -m0
  Conclusion: MPEG 95%
  Signature: CE2CE7695B3E662446FF3439F9BF65413BCF39A0
-
Яндекс.Метрика
Рейтинг@Mail.ru