Corona - The Rhythm Of The Night (1995) [APE|Lossless]<Eurodance>

 

Создавать темы 17-Дек-2014 11:52

-Corona - The Rhythm Of The Night (1995)- Лейбл: ZYX
Каталог: ZYX 20349-2
Год: 1995
Жанр: Eurodance
Продолжительность: 01:05:25
Кодек: APE
Битрейт: Lossless
Трек лист:
01. Baby Baby
02. Try Me Out
03. Get Up and Boogie
04. I Don't Wanna Be A Star
05. I Want Your Love
06. In The Name Of Love
07. I Gotta Keep Dancin'
08. The Rhythm Of The Night
09. Baby I Need Your Love
10. Don't Go Breaking My Heart
11. When I Give My Love
12. Do You Want Me
13. You Gotta Be Movin'
14. The Rhythm Of The Night (Rapino Bros. 7' Single)
15. Baby Baby (Dancing Divaz Club Mix) (6:08)
16. The Rhythm Of The Night - Duet with Ice MC (Lee Marrow Space Mix)

Дополнительная информация&#58;

Corona - проект продюсера Francesco Bontempi.
Вокалистка Olga Souza - уроженка Рио-де-Жанейро приехала в Италию в надежде заняться музыкальной карьерой.
После встречи с Francesco было решено записать первую песню Corona, так в 1993-м появляется сингл "The Rhythm Of The Night" который достигает первого места в Италии и держится там 13 недель, так же песня становится популярной в Европе, Азии, США и Канаде.
В 1995-м году выходит полноразмерный альбом "The Rhythm Of The Night", который помимо заглавной песни содержит такие хиты как "Baby Baby" и "Try Me Out". Альбом имеет огромный успех, а Corona становится желанной участницей различных фестивалей и шоу.
Спасибо nakts

Отчёт ЕАС&#58;

Exact Audio Copy V0.99 prebeta 4 from 23. January 2008
EAC extraction logfile from 8. April 2008, 13:24
CORONA / The Rhythm Of The Night
Used drive  : PIONEER DVD-RW  DVR-110D   Adapter: 0  ID: 0
Read mode               : Secure
Utilize accurate stream : Yes
Defeat audio cache      : Yes
Make use of C2 pointers : No
Read offset correction                      : 48
Overread into Lead-In and Lead-Out          : No
Fill up missing offset samples with silence : Yes
Delete leading and trailing silent blocks   : No
Null samples used in CRC calculations       : Yes
Used interface                              : Installed external ASPI interface
Used output format : Internal WAV Routines
Sample format      : 44.100 Hz; 16 Bit; Stereo
TOC of the extracted CD
     Track |   Start  |  Length  | Start sector | End sector
    ---------------------------------------------------------
        1  |  0:00.32 |  3:46.68 |        32    |    17049
        2  |  3:47.25 |  3:26.60 |     17050    |    32559
        3  |  7:14.10 |  3:14.12 |     32560    |    47121
        4  | 10:28.22 |  3:15.10 |     47122    |    61756
        5  | 13:43.32 |  3:44.33 |     61757    |    78589
        6  | 17:27.65 |  3:38.10 |     78590    |    94949
        7  | 21:06.00 |  3:36.02 |     94950    |   111151
        8  | 24:42.02 |  4:24.23 |    111152    |   130974
        9  | 29:06.25 |  4:03.35 |    130975    |   149234
       10  | 33:09.60 |  3:16.72 |    149235    |   164006
       11  | 36:26.57 |  3:34.38 |    164007    |   180094
       12  | 40:01.20 |  3:28.65 |    180095    |   195759
       13  | 43:30.10 |  5:37.35 |    195760    |   221069
       14  | 49:07.45 |  3:41.30 |    221070    |   237674
       15  | 52:49.00 |  6:08.02 |    237675    |   265276
       16  | 58:57.02 |  6:28.40 |    265277    |   294416
Range status and errors
Selected range
     Filename F:\C\CORONA\1995 _ The Rhythm Of The Night (01w+cl)my\CORONA _ 1995 _ The Rhythm Of The Night.wav
     Peak level 92.1 %
     Range quality 100.0 %
     Test CRC 691DBF74
     Copy CRC 691DBF74
     Copy OK
No errors occurred
AccurateRip summary
Track  1  accurately ripped (confidence 2)  [A5D156C2]
Track  2  not present in database
Track  3  not present in database
Track  4  not present in database
Track  5  not present in database
Track  6  not present in database
Track  7  not present in database
Track  8  not present in database
Track  9  not present in database
Track 10  not present in database
Track 11  not present in database
Track 12  not present in database
Track 13  not present in database
Track 14  not present in database
Track 15  not present in database
Track 16  accurately ripped (confidence 2)  [8EC64895]
2 track(s) accurately ripped
14 track(s) not present in the AccurateRip database
Some tracks could not be verified as accurate
End of status report

Отчёт auCDtect Task manager&#58;

-----------------------
DON'T MODIFY THIS FILE
-----------------------
PERFORMER: auCDtect Task Manager, ver. 1.5.1RC4 build 1.5.1.5
Copyright (c) 2008-2010 y-soft. All rights reserved
http://y-soft.org
ANALYZER: auCDtect: CD records authenticity detector, version 0.8.2
Copyright (c) 2004 Oleg Berngardt. All rights reserved.
Copyright (c) 2004 Alexander Djourik. All rights reserved.
FILE: Corona - The Rhythm Of The Night.ape
  Size: 446650008 Hash: E51B274EC281455DCEADB51F2FD2BD6F Accuracy: -m0
  Conclusion: CDDA 100%
  Signature: CB4894B8A1BB26D8BFAB323C5FF40E6075EE300B
Время раздачи: 24/7 до 5-ти сидов
Яндекс.Метрика
Рейтинг@Mail.ru