Pandora - 3 альбома (1993-1996) [FLAC|Lossless]<Eurodance>

 

Создавать темы 17-Дек-2014 11:52

-Pandora - 3 альбома (1993-1996)- Год: 1993-1996
Жанр: Eurodance
Продолжительность: 02:24:18
Кодек: FLAC
Битрейт: Lossless
Тип раздачи: image+.cue
Наличие сканов в содержимом раздачи: да-Pandora (Anneli Magnusson) - Шведская певица, её Профессиональная музыкальная карьера началась в 1993 году, с выходом дебютного сингла "Trust Me", который оказаться на верхних строчках Шведских хит парадов, получил звание «сингла года» и удостоился «золотого статуса».
Дебютный альбом "One Of A Kind", оправдал ожидания получив "золотой статус" и принес певице всемирную известность.
"Tell The World" тоже стал "золотым", ну а "Changes" уже был издан на всемирноизвестном лэйбле "Universal Music"
-

1993 - One Of A Kind

Треклист:
01. Intro "I'm Beginning To Fly"
02. Another Party
03. Trust Me
04. Going To The Top
05. Come On And Do It
06. One Of A Kind
07. Get Your Chance
08. Promise
09. Dizzharmonie
10. Join Me Now
11. Something's Gone
12. Trust Me (Club Extended)
13. Come On And Do It (The Funky Ride Version II)
Прoдолжительность: 00:50:58

Отчёт ЕАС&#58;

Exact Audio Copy V0.99 prebeta 5 from 4. May 2009
Отчёт EAC об извлечении, выполненном 13. декабря 2009, 19:52
Pandora / One Of A Kind
Дисковод: TSSTcorpCD/DVDW SH-S182M   Adapter: 1  ID: 0
Режим чтения                 : Достоверность
Использование точного потока : Да
Отключение кэша аудио        : Да
Использование указателей C2  : Нет
Коррекция смещения при чтении                     : 6
Способность читать области Lead-in и Lead-out     : Нет
Заполнение пропущенных сэмплов тишиной            : Да
Удаление блоков с тишиной в начале и конце        : Нет
При вычислениях CRC использовались нулевые сэмплы : Да
Интерфейс                                         : Установленный внешний ASPI-интерфейс
Выходной формат : Внутренние WAV-операции
Формат сэмплов  : 44.100 Гц; 16 бит; стерео
TOC извлечённого CD
     Трек |   Старт  | Длительность | Начальный сектор | Конечный сектор
    ---------------------------------------------------------------------
       1  |  0:00.00 |    1:26.27   |           0      |       6476
       2  |  1:26.27 |    4:08.30   |        6477      |      25106
       3  |  5:34.57 |    3:26.15   |       25107      |      40571
       4  |  9:00.72 |    3:28.00   |       40572      |      56171
       5  | 12:28.72 |    3:19.30   |       56172      |      71126
       6  | 15:48.27 |    3:48.03   |       71127      |      88229
       7  | 19:36.30 |    3:45.62   |       88230      |     105166
       8  | 23:22.17 |    4:28.08   |      105167      |     125274
       9  | 27:50.25 |    4:27.37   |      125275      |     145336
      10  | 32:17.62 |    4:01.28   |      145337      |     163439
      11  | 36:19.15 |    4:49.35   |      163440      |     185149
      12  | 41:08.50 |    5:36.17   |      185150      |     210366
      13  | 46:44.67 |    4:13.70   |      210367      |     229411
Характеристики диапазона извлечения и сообщения об ошибках
Выбранный диапазон
     Имя файла C:\Pandora - One Of A Kind.wav
     Пиковый уровень 100.0 %
     Качество диапазона 100.0 %
     CRC копии AD8F1BF0
     Копирование... OK
Ошибок не произошло
Конец отчёта

Отчёт Audiochecker&#58;

AUDIOCHECKER v2.0 beta (build 457) - by Dester - [url=mailto:[email protected]][email protected][/url]
~~~~~~~~~~~~~~~~~~~~~~~~~~~~~~~~~~
Started at: понедельник, 20. 12. 2010. - 11:27.02
1 file found
1 -===- D:\TORRENT\PANDORA - 3CD [NNM-club]\1993 - One Of A Kind\Pandora - One Of A Kind.flac
  Extracted successfully
  Conclusion: this track is CDDA with probability 100%
  Tempfile successfully deleted.
Finished at: понедельник, 20. 12. 2010. - 11:34.58 (operation time: 0:07.55)

1995 - Tell The World

Треклист:
01. Intro: The Outer Reaches
02. Don't You Know
03. The Naked Sun
04. Tell The World
05. Love Is A Stranger
06. Don't Let Me
07. Take My Hand
08. Can't Take The Feeling
09. Bedtime
10. Work
11. Rely
12. Tell The World (Kalahari Version)
13. Don't You Know (The Sir Family Extended)
Прoдолжительность: 00:49:23

Отчёт ЕАС&#58;

Exact Audio Copy V0.99 prebeta 4 from 23. January 2008
EAC extraction logfile from 18. July 2009, 16:02
Pandora / Tell The World
Used drive  : HL-DT-STRW/DVD GCC-4240N   Adapter: 1  ID: 0
Read mode               : Secure
Utilize accurate stream : Yes
Defeat audio cache      : Yes
Make use of C2 pointers : No
Read offset correction                      : 102
Overread into Lead-In and Lead-Out          : No
Fill up missing offset samples with silence : Yes
Delete leading and trailing silent blocks   : No
Null samples used in CRC calculations       : Yes
Used interface                              : Native Win32 interface for Win NT & 2000
Used output format              : User Defined Encoder
Selected bitrate                : 768 kBit/s
Quality                         : High
Add ID3 tag                     : No
Command line compressor         : D:\Exact Audio Copy\FLAC\FLAC.EXE
Additional command line options : -8 -V -T "ARTIST=%a" -T "TITLE=%t" -T "ALBUM=%g" -T "DATE=%y" -T "TRACKNUMBER=%n" -T "GENRE=%m" -T "COMMENT=%e" %s -o %d
TOC of the extracted CD
     Track |   Start  |  Length  | Start sector | End sector
    ---------------------------------------------------------
        1  |  0:00.37 |  1:10.58 |        37    |     5344
        2  |  1:11.20 |  3:49.67 |      5345    |    22586
        3  |  5:01.12 |  4:12.65 |     22587    |    41551
        4  |  9:14.02 |  3:39.40 |     41552    |    58016
        5  | 12:53.42 |  3:44.73 |     58017    |    74889
        6  | 16:38.40 |  4:22.72 |     74890    |    94611
        7  | 21:01.37 |  3:52.65 |     94612    |   112076
        8  | 24:54.27 |  3:18.70 |    112077    |   126996
        9  | 28:13.22 |  3:01.53 |    126997    |   140624
       10  | 31:15.00 |  3:37.00 |    140625    |   156899
       11  | 34:52.00 |  4:24.50 |    156900    |   176749
       12  | 39:16.50 |  3:48.62 |    176750    |   193911
       13  | 43:05.37 |  6:18.38 |    193912    |   222299
Range status and errors
Selected range
     Filename D:\Music\Dance\Pandora\1995 Tell The World\Pandora - Tell The World.wav
     Peak level 97.1 %
     Range quality 99.9 %
     Copy CRC 34A5C4E7
     Copy OK
No errors occurred
End of status report

Отчёт Audiochecker&#58;

AUDIOCHECKER v2.0 beta (build 457) - by Dester - [url=mailto:[email protected]][email protected][/url]
~~~~~~~~~~~~~~~~~~~~~~~~~~~~~~~~~~
Started at: понедельник, 20. 12. 2010. - 11:35.52
1 file found
1 -===- D:\TORRENT\PANDORA - 3CD [NNM-club]\1995 - Tell The World\Pandora - Tell The World.flac
  Extracted successfully
  Conclusion: this track is CDDA with probability 100%
  Tempfile successfully deleted.
Finished at: понедельник, 20. 12. 2010. - 11:43.34 (operation time: 0:07.42)

1996 - Changes

Треклист:
01. Prologue: Echoes
02. It's Alright
03. A Little Bit (Radio Version)
04. The Sands Of Time
05. Anything
06. Why
07. Any Time Of Season (Feat: G. Gole)
08. Smile'n'Shine
09. If You Want It (Come And Get It)
10. Goin' On
11. Love And Glory
12. Waves Of Memories (Epilogue)
Прoдолжительность: 00:43:57

Отчёт ЕАС&#58;

Exact Audio Copy V0.99 prebeta 5 from 4. May 2009
EAC extraction logfile from 3. October 2009, 18:42
Pandora / Changes
Used drive  : PLEXTOR CD-R   PREMIUM   Adapter: 0  ID: 0
Read mode               : Secure
Utilize accurate stream : Yes
Defeat audio cache      : Yes
Make use of C2 pointers : No
Read offset correction                      : 30
Overread into Lead-In and Lead-Out          : No
Fill up missing offset samples with silence : Yes
Delete leading and trailing silent blocks   : No
Null samples used in CRC calculations       : Yes
Used interface                              : Native Win32 interface for Win NT & 2000
Used output format              : User Defined Encoder
Selected bitrate                : 768 kBit/s
Quality                         : High
Add ID3 tag                     : No
Command line compressor         : C:\Program Files\Exact Audio Copy\FLAC\FLAC.EXE
Additional command line options : -8 -V %s
TOC of the extracted CD
     Track |   Start  |  Length  | Start sector | End sector
    ---------------------------------------------------------
        1  |  0:00.00 |  0:45.15 |         0    |     3389
        2  |  0:45.15 |  3:59.65 |      3390    |    21379
        3  |  4:45.05 |  3:29.27 |     21380    |    37081
        4  |  8:14.32 |  3:47.30 |     37082    |    54136
        5  | 12:01.62 |  3:57.43 |     54137    |    71954
        6  | 15:59.30 |  4:44.55 |     71955    |    93309
        7  | 20:44.10 |  3:19.17 |     93310    |   108251
        8  | 24:03.27 |  3:44.50 |    108252    |   125101
        9  | 27:48.02 |  3:49.73 |    125102    |   142349
       10  | 31:38.00 |  3:27.50 |    142350    |   157924
       11  | 35:05.50 |  4:05.55 |    157925    |   176354
       12  | 39:11.30 |  4:46.15 |    176355    |   197819
Range status and errors
Selected range
     Filename C:\шара\Pandora - Changes\Pandora - Changes.wav
     Peak level 100.0 %
     Range quality 99.9 %
     Test CRC 623FE4D1
     Copy CRC 623FE4D1
     Copy OK
No errors occurred
AccurateRip summary
Track  1  accurately ripped (confidence 2)  [0005D4A8]
Track  2  accurately ripped (confidence 2)  [92D1ADC0]
Track  3  accurately ripped (confidence 2)  [18B2EC87]
Track  4  accurately ripped (confidence 2)  [51AE0E49]
Track  5  accurately ripped (confidence 2)  [3A1CC6AF]
Track  6  accurately ripped (confidence 2)  [232783B3]
Track  7  accurately ripped (confidence 2)  [41A98645]
Track  8  accurately ripped (confidence 2)  [A6FDEEBF]
Track  9  accurately ripped (confidence 2)  [B7AE711C]
Track 10  accurately ripped (confidence 2)  [4386E0FD]
Track 11  accurately ripped (confidence 2)  [B6CD15FA]
Track 12  accurately ripped (confidence 2)  [77C7E653]
All tracks accurately ripped
End of status report

Отчёт Audiochecker&#58;

AUDIOCHECKER v2.0 beta (build 457) - by Dester - [url=mailto:[email protected]][email protected][/url]
~~~~~~~~~~~~~~~~~~~~~~~~~~~~~~~~~~
-=== DO NOT EDIT THIS FILE! ===-
Path: ...\1996 - Changes
1 -=- Pandora - Changes.flac -=- MPEG (95%)
166402772
-
Яндекс.Метрика
Рейтинг@Mail.ru