Desireless - Francois (1989) [FLAC|Lossless]<Pop>

 

Создавать темы 17-Дек-2014 11:52

-Desireless - Francois (1989)- Год: 1989
Жанр: Pop
Лейбл: Epic, Sony Music Inc
Каталог #: ESCA 5007
Продолжительность: 00:49:06-Кодек: FLAC
Тип рипа: image + .cue
Битрейт: Lossless-Треклист:
01. Qui Sommes Nous (4:31)
02. Animal (4:48)
03. Hari Om Ramakrishna (5:11)
04. Tombee D'Une Montagne (5:08)
05. Oublie Les, Oublie (3:59)
06. Les Commencements (4:05)
07. Elle Est Comme Les Etoiles (4:16)
08. Qui Peut Savoir (3:49)
09. John (4:15)
10. Dis Pourquoi (4:42)
11. Voyage, Voyage (4:24)-

Отчёт ЕАС&#58;

Exact Audio Copy V1.0 beta 3 from 29. August 2011
EAC extraction logfile from 9. January 2014, 23:47
Desireless / Francois
Used drive  : PLEXTOR DVDR   PX-810SA   Adapter: 2  ID: 0
Read mode               : Secure
Utilize accurate stream : Yes
Defeat audio cache      : Yes
Make use of C2 pointers : No
Read offset correction                      : 48
Overread into Lead-In and Lead-Out          : No
Fill up missing offset samples with silence : Yes
Delete leading and trailing silent blocks   : No
Null samples used in CRC calculations       : Yes
Used interface                              : Installed external ASPI interface
Used output format              : User Defined Encoder
Selected bitrate                : 1024 kBit/s
Quality                         : High
Add ID3 tag                     : No
Command line compressor         : C:\Program Files (x86)\Exact Audio Copy\Flac\flac.exe
Additional command line options : -8 -V -T "Date=%year%" -T "Genre=%genre%" -T "COMMENT=ripped by bvstudio®" %source%
TOC of the extracted CD
     Track |   Start  |  Length  | Start sector | End sector
    ---------------------------------------------------------
        1  |  0:00.00 |  4:31.30 |         0    |    20354
        2  |  4:31.30 |  4:47.67 |     20355    |    41946
        3  |  9:19.22 |  5:10.70 |     41947    |    65266
        4  | 14:30.17 |  5:07.60 |     65267    |    88351
        5  | 19:38.02 |  3:58.43 |     88352    |   106244
        6  | 23:36.45 |  4:04.55 |    106245    |   124599
        7  | 27:41.25 |  4:15.42 |    124600    |   143766
        8  | 31:56.67 |  3:48.43 |    143767    |   160909
        9  | 35:45.35 |  4:14.45 |    160910    |   180004
       10  | 40:00.05 |  4:42.05 |    180005    |   201159
       11  | 44:42.10 |  4:24.12 |    201160    |   220971
Range status and errors
Selected range
     Filename F:\Desireless\1989 - François (1989 - Epic • Sony Records Inc. Japan - ESCA 5007)\Desireless - Francois.wav
     Peak level 100.0 %
     Extraction speed 1.6 X
     Range quality 100.0 %
     Test CRC B86D2A90
     Copy CRC B86D2A90
     Copy OK
No errors occurred
AccurateRip summary
Track  1  accurately ripped (confidence 2)  [C3C834F9]  (AR v1)
Track  2  accurately ripped (confidence 2)  [5F1B16AC]  (AR v1)
Track  3  accurately ripped (confidence 2)  [0DC3A048]  (AR v1)
Track  4  accurately ripped (confidence 2)  [F2E47FC9]  (AR v1)
Track  5  accurately ripped (confidence 2)  [6C235927]  (AR v1)
Track  6  accurately ripped (confidence 2)  [40DB395B]  (AR v1)
Track  7  accurately ripped (confidence 2)  [D5B42508]  (AR v1)
Track  8  accurately ripped (confidence 2)  [72C6705D]  (AR v1)
Track  9  accurately ripped (confidence 2)  [A1554705]  (AR v1)
Track 10  accurately ripped (confidence 2)  [6E17EA8C]  (AR v1)
Track 11  accurately ripped (confidence 1)  [C88789B5]  (AR v1)
All tracks accurately ripped
End of status report
---- CUETools DB Plugin V2.1.5
[CTDB TOCID: 3Dy50vh78BQceiOdxV3UTxGC_EA-] found
Submit result: 3Dy50vh78BQceiOdxV3UTxGC_EA- has been uploaded
Track | CTDB Status
  1   | (2/2) Accurately ripped
  2   | (2/2) Accurately ripped
  3   | (1/2) Accurately ripped
  4   | (2/2) Accurately ripped
  5   | (2/2) Accurately ripped
  6   | (1/2) Accurately ripped, or (1/2) differs in 2220 samples @02:42:37-02:42:42
  7   | (2/2) Accurately ripped
  8   | (2/2) Accurately ripped
  9   | (1/2) Accurately ripped, or (1/2) differs in 3238 samples @00:52:18,00:52:31-00:52:39,00:52:47-00:52:54,00:52:64-00:52:71,00:53:01-00:53:12
10   | (2/2) Accurately ripped
11   | (2/2) Accurately ripped
If you are sure that your rip contains errors, you can use CUETools to repair it.
==== Log checksum 2AE3CC1BDEC1DB3CE303EE829D109F9A9091E2449F86905A609D1CAD8F88C415 ====

Отчёт auCDtect Task manager&#58;

-----------------------
DON'T MODIFY THIS FILE
-----------------------
PERFORMER: auCDtect Task Manager, ver. 1.6.0 RC1 build 1.6.0.1
Copyright (c) 2008-2010 y-soft. All rights reserved
http://y-soft.org
ANALYZER: auCDtect: CD records authenticity detector, version 0.8.2
Copyright (c) 2004 Oleg Berngardt. All rights reserved.
Copyright (c) 2004 Alexander Djourik. All rights reserved.
FILE: Desireless - Francois.flac
  Size: 331067563 Hash: 2F473B9995068A7309BF1F2E84260EAF Accuracy: -m0
  Conclusion: CDDA 100%
  Signature: FD7821188E904A7EB799CB084A9CF1C0294ECC97

Содержание индексной карты (.CUE&#41;

REM GENRE Synthpop
REM DATE 1989
REM DISCID 900B820B
REM COMMENT "ExactAudioCopy v1.0b3"
PERFORMER "Desireless"
TITLE "Francois"
FILE "Desireless - Francois.flac" WAVE
  TRACK 01 AUDIO
    TITLE "Qui Sommes Nous"
    PERFORMER "Desireless"
    INDEX 01 00:00:00
  TRACK 02 AUDIO
    TITLE "Animal"
    PERFORMER "Desireless"
    INDEX 01 04:31:30
  TRACK 03 AUDIO
    TITLE "Hari Om Ramakrishna"
    PERFORMER "Desireless"
    INDEX 01 09:19:22
  TRACK 04 AUDIO
    TITLE "Tombee D'Une Montagne"
    PERFORMER "Desireless"
    INDEX 01 14:30:17
  TRACK 05 AUDIO
    TITLE "Oublie Les, Oublie"
    PERFORMER "Desireless"
    INDEX 01 19:38:02
  TRACK 06 AUDIO
    TITLE "Les Commencements"
    PERFORMER "Desireless"
    INDEX 01 23:36:45
  TRACK 07 AUDIO
    TITLE "Elle Est Comme Les Etoiles "
    PERFORMER "Desireless"
    INDEX 00 27:40:37
    INDEX 01 27:41:25
  TRACK 08 AUDIO
    TITLE "Qui Peut Savoir"
    PERFORMER "Desireless"
    INDEX 01 31:56:67
  TRACK 09 AUDIO
    TITLE "John"
    PERFORMER "Desireless"
    INDEX 01 35:45:35
  TRACK 10 AUDIO
    TITLE "Dis Pourquoi"
    PERFORMER "Desireless"
    INDEX 01 40:00:05
  TRACK 11 AUDIO
    TITLE "Voyage, Voyage"
    PERFORMER "Desireless"
    INDEX 00 44:41:40
    INDEX 01 44:42:10

Сверка с АккуратРип

[CUETools log; Date: 05.02.2014 23:34:40; Version: 2.1.4]
[CTDB TOCID: 3Dy50vh78BQceiOdxV3UTxGC_EA-] found.
Track | CTDB Status
  1   | (3/3) Accurately ripped
  2   | (3/3) Accurately ripped
  3   | (2/3) Accurately ripped
  4   | (3/3) Accurately ripped
  5   | (3/3) Accurately ripped
  6   | (2/3) Accurately ripped, or (1/3) differs in 2220 samples @02:42:37-02:42:42
  7   | (3/3) Accurately ripped
  8   | (3/3) Accurately ripped
  9   | (2/3) Accurately ripped, or (1/3) differs in 3238 samples @00:52:18,00:52:31-00:52:39,00:52:47-00:52:54,00:52:64-00:52:71,00:53:01-00:53:12
10   | (3/3) Accurately ripped
11   | (3/3) Accurately ripped
[AccurateRip ID: 0014a76c-00b1a3fa-900b820b] found.
Track   [  CRC   |   V2   ] Status
01     [c3c834f9|a3d842ef] (2+0/2) Accurately ripped
02     [5f1b16ac|6294f08c] (2+0/2) Accurately ripped
03     [0dc3a048|3585616d] (2+0/2) Accurately ripped
04     [f2e47fc9|85875ee3] (2+0/2) Accurately ripped
05     [6c235927|0f5a44c2] (2+0/2) Accurately ripped
06     [40db395b|4aec2f83] (2+0/2) Accurately ripped
07     [d5b42508|489abdbf] (2+0/2) Accurately ripped
08     [72c6705d|95e461df] (2+0/2) Accurately ripped
09     [a1554705|d4c3967a] (2+0/2) Accurately ripped
10     [6e17ea8c|b6bbc5e5] (2+0/2) Accurately ripped
11     [c88789b5|06a2968e] (1+1/5) Accurately ripped
Track Peak [ CRC32  ] [W/O NULL] [  LOG   ]
--  100,0 [B86D2A90] [305CE500]   CRC32
01  100,0 [6B95C91A] [3F4959B0]
02  100,0 [A437EEFD] [2D416410]
03   84,9 [118CE562] [48D461B8]
04   77,2 [01F69930] [F583C255]
05   99,9 [ABB39A2F] [1B63145C]
06   88,2 [1B14BD74] [10C205B3]
07   93,6 [B4274AC8] [A743BFE4]
08   95,0 [F615E84F] [F04DE2D7]
09   87,1 [B724F458] [A2B343EF]
10   87,5 [2B7E1F43] [72E1F7F5]
11   84,5 [185C7E22] [61FBB594]
-
Яндекс.Метрика
Рейтинг@Mail.ru