Ice MC - 2 альбома (1990,1991) /Alfa Int. Japan/ [FLAC|Lossless]<Pop Rap,Hip-House>

 

Создавать темы 17-Дек-2014 11:52

-Ice MC - 2 альбома (Japanese edition)- Жанр: Pop Rap,Hip-House
Лейбл: Alfa International
Изготовитель: Alfa Records Inc.
Каталог: под спойлерами
Страна-производитель дисков: Japan
Года изданий: 1990,1991
Тип рипа: EAC (Img+Cue+Log)
Аудио кодек: FLAC [*.flac]
Битрейт: Lossless
Продолжительность: 01:36:27
Источник (релизёр): Рипы с собственных CD
Наличие сканов: Да
Размер: 775 Мб
--Альбомы-

Cinema (1990&#41;

Треклист:
01. Cinema (3:48)
02. Scream (4:05)
03. Peace (3:51)
04. Gone With The Wind (4:47)
05. Dolce Vita (3:55)
06. Easy (3:46)
07. I'm Sad (4:07)
08. OK Corral (3:31)
09. Rock Your Body (4:30)
10. Laika (4:09)
11. Easy (Extended Revolution Remix) (5:47)
12. Cinema (The Oscar Mix) (5:31)
13. Scream (Extended Atomic Remix) (6:55)
Продолжительность: 00:58:40
Каталог: ALCB-136

EAC-Log

Exact Audio Copy V0.99 prebeta 5 from 4. May 2009
EAC extraction logfile from 24. March 2011, 14:17
ICE MC / Cinema
Used drive  : ASUS    DRW-20B1ST   Adapter: 2  ID: 0
Read mode               : Secure
Utilize accurate stream : Yes
Defeat audio cache      : Yes
Make use of C2 pointers : No
Read offset correction                      : 6
Overread into Lead-In and Lead-Out          : No
Fill up missing offset samples with silence : Yes
Delete leading and trailing silent blocks   : No
Null samples used in CRC calculations       : Yes
Used interface                              : Installed external ASPI interface
Used output format              : User Defined Encoder
Selected bitrate                : 32 kBit/s
Quality                         : High
Add ID3 tag                     : No
Command line compressor         : C:\Program Files\Exact Audio Copy\Flac\flac.exe
Additional command line options : -T "DATE=%y" -T"GENRE=%m" -8 -V %s
TOC of the extracted CD
     Track |   Start  |  Length  | Start sector | End sector
    ---------------------------------------------------------
        1  |  0:00.00 |  3:47.40 |         0    |    17064
        2  |  3:47.40 |  4:04.72 |     17065    |    35436
        3  |  7:52.37 |  3:51.10 |     35437    |    52771
        4  | 11:43.47 |  4:46.43 |     52772    |    74264
        5  | 16:30.15 |  3:55.17 |     74265    |    91906
        6  | 20:25.32 |  3:46.25 |     91907    |   108881
        7  | 24:11.57 |  4:06.60 |    108882    |   127391
        8  | 28:18.42 |  3:31.13 |    127392    |   143229
        9  | 31:49.55 |  4:30.02 |    143230    |   163481
       10  | 36:19.57 |  4:08.50 |    163482    |   182131
       11  | 40:28.32 |  5:46.63 |    182132    |   208144
       12  | 46:15.20 |  5:31.02 |    208145    |   232971
       13  | 51:46.22 |  6:54.45 |    232972    |   264066
Range status and errors
Selected range
     Filename E:\ICE MC - Cinema.wav
     Peak level 100.0 %
     Range quality 99.9 %
     Test CRC D7868EFF
     Copy CRC D7868EFF
     Copy OK
No errors occurred
AccurateRip summary
Track  1  not present in database
Track  2  not present in database
Track  3  not present in database
Track  4  not present in database
Track  5  not present in database
Track  6  not present in database
Track  7  not present in database
Track  8  not present in database
Track  9  not present in database
Track 10  not present in database
Track 11  not present in database
Track 12  not present in database
Track 13  not present in database
None of the tracks are present in the AccurateRip database
End of status report

auCDtect

-----------------------
DON'T MODIFY THIS FILE
-----------------------
PERFORMER: auCDtect Task Manager, ver. 1.5.1RC6 build 1.5.1.7
Copyright (c) 2008-2010 y-soft. All rights reserved
http://y-soft.org
ANALYZER: auCDtect: CD records authenticity detector, version 0.8.2
Copyright (c) 2004 Oleg Berngardt. All rights reserved.
Copyright (c) 2004 Alexander Djourik. All rights reserved.
FILE: ICE MC - Cinema.flac
  Size: 390761815 Hash: FD82F327F393BEB6DEB43BF07D105035 Accuracy: -m0
  Conclusion: MPEG 95%
  Signature: 12C2E29CF30C1AE8761F4868A99337E2A1A9E772

My World (1991&#41;

Треклист:
01. People (4:20)
02. Happy Weekend (3:20)
03. Rainy Days (3:26)
04. Prayer (4:23)
05. Italiano Ragga (3:43)
06. Don't Forget My Name (3:12)
07. Baby (3:22)
08. Funkin' With You (3:16)
09. I Love You (4:24)
10. I Go Crazy Baby (4:22)
Продолжительность: 00:37:46
Каталог: ALCB-384

EAC-Log

Exact Audio Copy V0.99 prebeta 5 from 4. May 2009
EAC extraction logfile from 8. October 2011, 13:14
ICE MC / My World
Used drive  : ASUS    DRW-20B1ST   Adapter: 2  ID: 0
Read mode               : Secure
Utilize accurate stream : Yes
Defeat audio cache      : Yes
Make use of C2 pointers : No
Read offset correction                      : 6
Overread into Lead-In and Lead-Out          : No
Fill up missing offset samples with silence : Yes
Delete leading and trailing silent blocks   : No
Null samples used in CRC calculations       : Yes
Used interface                              : Installed external ASPI interface
Used output format              : User Defined Encoder
Selected bitrate                : 32 kBit/s
Quality                         : High
Add ID3 tag                     : No
Command line compressor         : C:\Program Files\Exact Audio Copy\Flac\flac.exe
Additional command line options : -T "DATE=%y" -T"GENRE=%m" -8 -V %s
TOC of the extracted CD
     Track |   Start  |  Length  | Start sector | End sector
    ---------------------------------------------------------
        1  |  0:00.00 |  4:20.15 |         0    |    19514
        2  |  4:20.15 |  3:20.05 |     19515    |    34519
        3  |  7:40.20 |  3:25.55 |     34520    |    49949
        4  | 11:06.00 |  4:22.40 |     49950    |    69639
        5  | 15:28.40 |  3:42.57 |     69640    |    86346
        6  | 19:11.22 |  3:11.53 |     86347    |   100724
        7  | 22:23.00 |  3:22.37 |    100725    |   115911
        8  | 25:45.37 |  3:15.73 |    115912    |   130609
        9  | 29:01.35 |  4:23.50 |    130610    |   150384
       10  | 33:25.10 |  4:21.57 |    150385    |   170016
Range status and errors
Selected range
     Filename D:\ICE MC - My World.wav
     Peak level 91.1 %
     Range quality 100.0 %
     Test CRC D2FC8A3A
     Copy CRC D2FC8A3A
     Copy OK
No errors occurred
AccurateRip summary
Track  1  not present in database
Track  2  not present in database
Track  3  not present in database
Track  4  not present in database
Track  5  not present in database
Track  6  not present in database
Track  7  not present in database
Track  8  not present in database
Track  9  not present in database
Track 10  not present in database
None of the tracks are present in the AccurateRip database
End of status report

auCDtect

-----------------------
DON'T MODIFY THIS FILE
-----------------------
PERFORMER: auCDtect Task Manager, ver. 1.5.1RC6 build 1.5.1.7
Copyright (c) 2008-2010 y-soft. All rights reserved
http://y-soft.org
ANALYZER: auCDtect: CD records authenticity detector, version 0.8.2
Copyright (c) 2004 Oleg Berngardt. All rights reserved.
Copyright (c) 2004 Alexander Djourik. All rights reserved.
FILE: ICE MC - My World.flac
  Size: 256978176 Hash: 16EE38609C07E38E63EB081EF5FF71B7 Accuracy: -m0
  Conclusion: CDDA 100%
  Signature: 3A39615ED7068FBA1F6E9F9E16F2D93F3A032AEE
-
Яндекс.Метрика
Рейтинг@Mail.ru