[ Сегодня на трекере фрилич! Идет свободное скачивание без начисления Download ]

DJ Bobo - Dance With Me (1993) [FLAC|Lossless]<Eurodance> (Первый альбом!!!)

 

Создавать темы 17-Дек-2014 11:52

-DJ Bobo - Dance With Me (1993)- Год: 1993
Жанр: Eurodance
Кодек: FLAC
Битрейт: Lossless
Тип рипа: Image+cue
Label: 12INC
Catalog #: BOCD1
Трек лист:
Продолжительность: 00:52:59
01. Intro
02. Somebody Dance With Me
03. Take Control
04. Everybody
05. Keep On Dancing
06. I Want Your Body
07. Uh Uh
08. Let's Groove On
09. Somebody Dance With Me (Italian Mix)
10. Music
11. Move Your Feet
12. Keep On Dancing (12' Fashion Mix)
13. Somebody Dance With Me (DMC Remix)
14. Bobo ID '1'
15. Bobo ID '2'

Отчёт ЕАС&#58;

Exact Audio Copy V0.99 prebeta 5 from 4. May 2009
EAC extraction logfile from 7. March 2012, 22:54
DJ Bobo / Dance With Me
Used drive  : Optiarc DVD RW AD-7203S   Adapter: 1  ID: 0
Read mode               : Secure
Utilize accurate stream : Yes
Defeat audio cache      : Yes
Make use of C2 pointers : No
Read offset correction                      : 48
Overread into Lead-In and Lead-Out          : No
Fill up missing offset samples with silence : Yes
Delete leading and trailing silent blocks   : No
Null samples used in CRC calculations       : Yes
Used interface                              : Native Win32 interface for Win NT & 2000
Used output format              : User Defined Encoder
Selected bitrate                : 768 kBit/s
Quality                         : High
Add ID3 tag                     : No
Command line compressor         : C:\Program Files\Exact Audio Copy\FLAC\FLAC.EXE
Additional command line options : -6 -V -T "ARTIST=%a" -T "TITLE=%t" -T "ALBUM=%g" -T "DATE=%y" -T "TRACKNUMBER=%n" -T "GENRE=%m" -T "COMMENT=%e" %s -o %d
TOC of the extracted CD
     Track |   Start  |  Length  | Start sector | End sector
    ---------------------------------------------------------
        1  |  0:00.25 |  0:45.15 |        25    |     3414
        2  |  0:45.40 |  3:33.58 |      3415    |    19447
        3  |  4:19.23 |  4:30.72 |     19448    |    39769
        4  |  8:50.20 |  3:55.05 |     39770    |    57399
        5  | 12:45.25 |  3:35.18 |     57400    |    73542
        6  | 16:20.43 |  4:54.17 |     73543    |    95609
        7  | 21:14.60 |  4:25.73 |     95610    |   115557
        8  | 25:40.58 |  3:03.07 |    115558    |   129289
        9  | 28:43.65 |  5:23.45 |    129290    |   153559
       10  | 34:07.35 |  4:37.08 |    153560    |   174342
       11  | 38:44.43 |  3:47.65 |    174343    |   191432
       12  | 42:32.33 |  6:10.02 |    191433    |   219184
       13  | 48:42.35 |  3:59.00 |    219185    |   237109
       14  | 52:41.35 |  0:10.70 |    237110    |   237929
       15  | 52:52.30 |  0:06.43 |    237930    |   238422
Range status and errors
Selected range
     Filename K:\flacmusic.ru\DJ BoBo - Dance With Me (1993)\DJ Bobo - Dance With Me.wav
     Peak level 99.8 %
     Range quality 100.0 %
     Test CRC DC873351
     Copy CRC DC873351
     Copy OK
No errors occurred
AccurateRip summary
Track  1  not present in database
Track  2  not present in database
Track  3  not present in database
Track  4  not present in database
Track  5  not present in database
Track  6  not present in database
Track  7  not present in database
Track  8  not present in database
Track  9  not present in database
Track 10  not present in database
Track 11  not present in database
Track 12  not present in database
Track 13  not present in database
Track 14  not present in database
Track 15  not present in database
None of the tracks are present in the AccurateRip database
End of status report

Отчёт auCDtect Task manager&#58;

-----------------------
DON'T MODIFY THIS FILE
-----------------------
PERFORMER: auCDtect Task Manager, ver. 1.6.0 RC1 build 1.6.0.1
Copyright (c) 2008-2010 y-soft. All rights reserved
http://y-soft.org
ANALYZER: auCDtect: CD records authenticity detector, version 0.8.2
Copyright (c) 2004 Oleg Berngardt. All rights reserved.
Copyright (c) 2004 Alexander Djourik. All rights reserved.
FILE: DJ Bobo - Dance With Me.flac
  Size: 393090521 Hash: 3DAC2A4A0C4D7CDC636D83053038AB94 Accuracy: -m0
  Conclusion: CDDA 100%
  Signature: E70EF3629A973DD8CC8ED6002AACDFF58560B988

Содержание файла .cue&#58;

REM GENRE Eurodance
REM DATE 1993
REM DISCID CB0C6A0F
REM COMMENT "ExactAudioCopy v0.99pb5"
PERFORMER "DJ Bobo"
TITLE "Dance With Me"
FILE "DJ Bobo - Dance With Me.flac" WAVE
  TRACK 01 AUDIO
    TITLE "Intro"
    PERFORMER "DJ Bobo"
    INDEX 00 00:00:00
    INDEX 01 00:00:25
  TRACK 02 AUDIO
    TITLE "Somebody Dance With Me"
    PERFORMER "DJ Bobo"
    INDEX 00 00:45:35
    INDEX 01 00:45:40
  TRACK 03 AUDIO
    TITLE "Take Control"
    PERFORMER "DJ Bobo"
    INDEX 00 04:18:35
    INDEX 01 04:19:23
  TRACK 04 AUDIO
    TITLE "Everybody"
    PERFORMER "DJ Bobo"
    INDEX 00 08:49:30
    INDEX 01 08:50:20
  TRACK 05 AUDIO
    TITLE "Keep On Dancing"
    PERFORMER "DJ Bobo"
    INDEX 00 12:44:38
    INDEX 01 12:45:25
  TRACK 06 AUDIO
    TITLE "I Want Your Body"
    PERFORMER "DJ Bobo"
    INDEX 00 16:19:40
    INDEX 01 16:20:43
  TRACK 07 AUDIO
    TITLE "Uh Uh"
    PERFORMER "DJ Bobo"
    INDEX 00 21:13:65
    INDEX 01 21:14:60
  TRACK 08 AUDIO
    TITLE "Let's Groove On"
    PERFORMER "DJ Bobo"
    INDEX 00 25:39:60
    INDEX 01 25:40:58
  TRACK 09 AUDIO
    TITLE "Somebody Dance With Me (Italian Mix)"
    PERFORMER "DJ Bobo"
    INDEX 00 28:42:70
    INDEX 01 28:43:65
  TRACK 10 AUDIO
    TITLE "Music"
    PERFORMER "DJ Bobo"
    INDEX 00 34:06:35
    INDEX 01 34:07:35
  TRACK 11 AUDIO
    TITLE "Move Your Feet"
    PERFORMER "DJ Bobo"
    INDEX 00 38:43:58
    INDEX 01 38:44:43
  TRACK 12 AUDIO
    TITLE "Keep On Dancing (12' Fashion Mix)"
    PERFORMER "DJ Bobo"
    INDEX 00 42:31:28
    INDEX 01 42:32:33
  TRACK 13 AUDIO
    TITLE "Somebody Dance With Me (DMC Remix)"
    PERFORMER "DJ Bobo"
    INDEX 00 48:41:38
    INDEX 01 48:42:35
  TRACK 14 AUDIO
    TITLE "Bobo ID '1' "
    PERFORMER "DJ Bobo"
    INDEX 00 52:40:40
    INDEX 01 52:41:35
  TRACK 15 AUDIO
    TITLE "Bobo ID '2'"
    PERFORMER "DJ Bobo"
    INDEX 00 52:51:58
    INDEX 01 52:52:30
-

Доплнительная информация

Думаю, ценители творчества этого артиста по достоинству оценят данный реоиз.
Именно эти песни в далеком 1992 году вывели на "Музыкальный Олимп" парня, который в последстсвии стал известен как DJ. Bobo.
Итак, шведская лицензия и самый первый альбом DJ.Bobo - Dance With Me
-
Яндекс.Метрика
Рейтинг@Mail.ru