Александр Заборский - ZONA Молчания (2013) [FLAC|Lossless]<Шансон>

 

Создавать темы 16-Дек-2014 20:20

-Александр Заборский - ZONA Молчания (2013)- Год: 2013
Страна-производитель диска: Россия
Жанр: Шансон
Продолжительность: 01:03:02
Кодек: FLAC
Битрейт: Lossless
Тип рипа: image+.cue
Треклист:
01. Случай на границе (3:24)
02. Керчинский блюз (3:45)
03. Фонарики (3:13)
04. Последнее письмо (4:21)
05. За упокой души (5:22)
06. Пиковая краля (3:39)
07. Платок (5:08)
08. Революционный матрос Цыппельман (2:42)
09. Удачный побег (5:03)
10. Привет из Севастополя (3:57)
11. Еврейский вопрос (5:29)
12. А чей он? (4:23)
13. Рыжая судьба (4:54)
14. Сахар-сахарочек (3:34)
15. А кто я? (4:09)

Отчёт ЕАС&#58;

Exact Audio Copy V1.0 beta 3 from 29. August 2011
Отчёт EAC об извлечении, выполненном 03. марта 2014, 12:45
Александр Заборский / ZONA Молчания
Дисковод: ASUS    DRW-1814BLT   Adapter: 5  ID: 0
Режим чтения                 : Достоверность
Использование точного потока : Да
Отключение кэша аудио        : Да
Использование указателей C2  : Нет
Коррекция смещения при чтении                     : 6
Способность читать области Lead-in и Lead-out     : Нет
Заполнение пропущенных сэмплов тишиной            : Да
Удаление блоков с тишиной в начале и конце        : Нет
При вычислениях CRC использовались нулевые сэмплы : Да
Интерфейс                                         : Встроенный Win32-интерфейс для Win NT/2000
Выходной формат : Внутренние WAV-операции
Формат сэмплов  : 44.100 Гц; 16 бит; стерео
TOC извлечённого CD
     Трек |   Старт  | Длительность | Начальный сектор | Конечный сектор
    ---------------------------------------------------------------------
       1  |  0:00.00 |    3:24.07   |           0      |      15306
       2  |  3:24.07 |    3:45.37   |       15307      |      32218
       3  |  7:09.44 |    3:12.63   |       32219      |      46681
       4  | 10:22.32 |    4:20.40   |       46682      |      66221
       5  | 14:42.72 |    5:21.57   |       66222      |      90353
       6  | 20:04.54 |    3:39.25   |       90354      |     106803
       7  | 23:44.04 |    5:07.39   |      106804      |     129867
       8  | 28:51.43 |    2:41.60   |      129868      |     142002
       9  | 31:33.28 |    5:02.57   |      142003      |     164709
      10  | 36:36.10 |    3:57.00   |      164710      |     182484
      11  | 40:33.10 |    5:28.60   |      182485      |     207144
      12  | 46:01.70 |    4:22.59   |      207145      |     226853
      13  | 50:24.54 |    4:54.00   |      226854      |     248903
      14  | 55:18.54 |    3:33.67   |      248904      |     264945
      15  | 58:52.46 |    4:08.71   |      264946      |     283616
Характеристики диапазона извлечения и сообщения об ошибках
Выбранный диапазон
     Имя файла  Александр Заборский - ZONA Молчания.wav
     Пиковый уровень 100.0 %
     Скорость извлечения 8.0 X
     Качество диапазона 100.0 %
     CRC теста 0CB46708
     CRC копии 0CB46708
     Копирование... OK
Ошибок не произошло
AccurateRip: сводка
Трек  1  отсутствует в базе данных
Трек  2  отсутствует в базе данных
Трек  3  отсутствует в базе данных
Трек  4  отсутствует в базе данных
Трек  5  отсутствует в базе данных
Трек  6  отсутствует в базе данных
Трек  7  отсутствует в базе данных
Трек  8  отсутствует в базе данных
Трек  9  отсутствует в базе данных
Трек 10  отсутствует в базе данных
Трек 11  отсутствует в базе данных
Трек 12  отсутствует в базе данных
Трек 13  отсутствует в базе данных
Трек 14  отсутствует в базе данных
Трек 15  отсутствует в базе данных
Ни одного трека нет в базе AccurateRip
Конец отчёта
==== Контрольная сумма отчёта 897B9A3B4AB345E38834E77FD824E1C8145BC18DE9BD424BAB3B3EB54751872B ====

Отчёт auCDtect Task manager&#58;

-----------------------
DON'T MODIFY THIS FILE
-----------------------
PERFORMER: auCDtect Task Manager, ver. 1.5.1RC6 build 1.5.1.7
Copyright (c) 2008-2010 y-soft. All rights reserved
http://y-soft.org
ANALYZER: auCDtect: CD records authenticity detector, version 0.8.2
Copyright (c) 2004 Oleg Berngardt. All rights reserved.
Copyright (c) 2004 Alexander Djourik. All rights reserved.
FILE: Александр Заборский - ZONA Молчания.flac
  Size: 431803516 Hash: 5BE5CFFD2D2CA0CF405E75B23C8932EB Accuracy: -m0
  Conclusion: CDDA 95%
  Signature: 64EFB49AA6D99EAF9BADD21C0A437FB300994917
-
Яндекс.Метрика
Рейтинг@Mail.ru