Оксана Билера - Выпускница (2010) [FLAC|Lossless]<Шансон>

 

Создавать темы 16-Дек-2014 20:20

-Оксана Билера - Выпускница (2010)- Год: 2010
Страна-производитель диска: Россия
Издатель (лейбл): Студия "Ночное такси"
Жанр: Шансон
Продолжительность: 00:51:20
Кодек: FLAC
Битрейт: Lossless
Тип рипа: image+.cue
Треклист:
01. Вступление - А.Фрумин (0:12)
02. Рай в шалаше (3:50)
03. Алые паруса (3:30)
04. Я тебя нарисую (3:49)
05. Мы танцуем (4:07)
06. Прошлое уходит (4:34)
07. Я все ещё люблю тебя (3:47)
08. Слышишь (3:43)
09. Посылочка (3:12)
10. Журавли (4:38)
11. Русская земля (3:49)
12. Песня маме (4:41)
13. Выпускница (3:16)
14. Мы разлучились (Дуэт с Геннадием Жаровым) (4:13)

Отчёт ЕАС&#58;

Exact Audio Copy V0.99 prebeta 4 from 23. January 2008
Отчёт EAC об извлечении, выполненном 02. марта 2014, 22:15
Оксана Билера / Выпускница
Дисковод: ASUS    DRW-1814BLT   Adapter: 5  ID: 0
Режим чтения                 : Достоверность
Использование точного потока : Да
Отключение кэша аудио        : Да
Использование указателей C2  : Нет
Коррекция смещения при чтении                     : 6
Способность читать области Lead-in и Lead-out     : Нет
Заполнение пропущенных сэмплов тишиной            : Да
Удаление блоков с тишиной в начале и конце        : Нет
При вычислениях CRC использовались нулевые сэмплы : Да
Интерфейс                                         : Установленный внешний ASPI-интерфейс
Выходной формат : Внутренние WAV-операции
Формат сэмплов  : 44.100 Гц; 16 бит; стерео
TOC извлечённого CD
     Трек |   Старт  | Длительность | Начальный сектор | Конечный сектор
    ---------------------------------------------------------------------
       1  |  0:00.00 |    0:12.05   |           0      |        904
       2  |  0:12.05 |    3:50.33   |         905      |      18187
       3  |  4:02.38 |    3:29.56   |       18188      |      33918
       4  |  7:32.19 |    3:48.71   |       33919      |      51089
       5  | 11:21.15 |    4:07.26   |       51090      |      69640
       6  | 15:28.41 |    4:33.59   |       69641      |      90174
       7  | 20:02.25 |    3:46.56   |       90175      |     107180
       8  | 23:49.06 |    3:42.71   |      107181      |     123901
       9  | 27:32.02 |    3:11.54   |      123902      |     138280
      10  | 30:43.56 |    4:38.27   |      138281      |     159157
      11  | 35:22.08 |    3:49.19   |      159158      |     176351
      12  | 39:11.27 |    4:40.60   |      176352      |     197411
      13  | 43:52.12 |    3:15.59   |      197412      |     212095
      14  | 47:07.71 |    4:12.42   |      212096      |     231037
Характеристики диапазона извлечения и сообщения об ошибках
Выбранный диапазон
     Имя файла Оксана Билера - Выпускница.wav
     Пиковый уровень 100.0 %
     Качество диапазона 100.0 %
     CRC теста 293C1993
     CRC копии 293C1993
     Копирование... OK
Ошибок не произошло
AccurateRip: сводка
Трек  1  нет в базе данных
Трек  2  нет в базе данных
Трек  3  нет в базе данных
Трек  4  нет в базе данных
Трек  5  нет в базе данных
Трек  6  нет в базе данных
Трек  7  нет в базе данных
Трек  8  нет в базе данных
Трек  9  нет в базе данных
Трек 10  нет в базе данных
Трек 11  нет в базе данных
Трек 12  нет в базе данных
Трек 13  нет в базе данных
Трек 14  нет в базе данных
Ни одного трека нет в базе AccurateRip
Конец отчёта

Отчёт auCDtect Task manager&#58;

-----------------------
DON'T MODIFY THIS FILE
-----------------------
PERFORMER: auCDtect Task Manager, ver. 1.5.1RC6 build 1.5.1.7
Copyright (c) 2008-2010 y-soft. All rights reserved
http://y-soft.org
ANALYZER: auCDtect: CD records authenticity detector, version 0.8.2
Copyright (c) 2004 Oleg Berngardt. All rights reserved.
Copyright (c) 2004 Alexander Djourik. All rights reserved.
FILE: Оксана Билера - Выпускница.flac
  Size: 398239529 Hash: DB1276CE77D21ADEBF47F9A5D47851AA Accuracy: -m0
  Conclusion: CDDA 99%
  Signature: CBB84A6DDA9E4371F4A06FD390AA27A6E6A637F0
-
Яндекс.Метрика
Рейтинг@Mail.ru