Анатолий Днепров - Собрание сочинений. Дело № 037 (2003) [FLAC|Lossless]<Шансон>

 

Создавать темы 16-Дек-2014 20:20

-Анатолий Днепров - Собрание сочинений. Дело № 037 (2003)- Год: 2003
Страна-производитель диска: Россия
Издатель (лейбл): Winner Music
Номер по каталогу: S1738
Жанр: Шансон
Продолжительность: 01:19:51
Кодек: FLAC
Битрейт: Lossless
Тип рипа: image+.cue
Треклист:
01. Никакой (3:59)
02. Одесский ералаш (3:39)
03. Памятник гранёному стакану (3:32)
04. Песенка пьяницы (3:14)
05. Ответ Вилли Токареву (3:16)
06. Из-за бугра (3:03)
07. Голый король (3:52)
08. Рюмка ностальгии (4:01)
09. А осень, как осень (3:58)
10. Стучат колёса (2:42)
11. Попурри на темы 70-х годов (3:36)
12. Звёзды на лугу (3:20)
13. Любовь уходит тихо по-английски (3:47)
14. Радовать (4:37)
15. Ах, как жаль (3:36)
16. Только помни меня (3:08)
17. Только дома (4:31)
18. Посвящение В.С.Высоцкому (3:55)
19. Прописано сердце по адресу Русь (3:46)
20. Вокзалы (3:45)
21. Я на свободе (3:44)
22. Рябина (2:52)

Отчёт ЕАС&#58;

Exact Audio Copy V1.0 beta 3 from 29. August 2011
Отчёт EAC об извлечении, выполненном 01. марта 2014, 15:38
Анатолий Днепров / Собрание сочинений
Дисковод: ASUS    DRW-24B3ST   Adapter: 3  ID: 0
Режим чтения                 : Достоверность
Использование точного потока : Да
Отключение кэша аудио        : Да
Использование указателей C2  : Нет
Коррекция смещения при чтении                     : 6
Способность читать области Lead-in и Lead-out     : Нет
Заполнение пропущенных сэмплов тишиной            : Да
Удаление блоков с тишиной в начале и конце        : Нет
При вычислениях CRC использовались нулевые сэмплы : Да
Интерфейс                                         : Встроенный Win32-интерфейс для Win NT/2000
Выходной формат : Внутренние WAV-операции
Формат сэмплов  : 44.100 Гц; 16 бит; стерео
TOC извлечённого CD
     Трек |   Старт  | Длительность | Начальный сектор | Конечный сектор
    ---------------------------------------------------------------------
       1  |  0:00.00 |    3:59.20   |           0      |      17944
       2  |  3:59.20 |    3:39.07   |       17945      |      34376
       3  |  7:38.27 |    3:32.15   |       34377      |      50291
       4  | 11:10.42 |    3:13.59   |       50292      |      64825
       5  | 14:24.26 |    3:16.11   |       64826      |      79536
       6  | 17:40.37 |    3:02.68   |       79537      |      93254
       7  | 20:43.30 |    3:51.59   |       93255      |     110638
       8  | 24:35.14 |    4:00.70   |      110639      |     128708
       9  | 28:36.09 |    3:57.53   |      128709      |     146536
      10  | 32:33.62 |    2:42.22   |      146537      |     158708
      11  | 35:16.09 |    3:35.44   |      158709      |     174877
      12  | 38:51.53 |    3:20.19   |      174878      |     189896
      13  | 42:11.72 |    3:46.46   |      189897      |     206892
      14  | 45:58.43 |    4:36.66   |      206893      |     227658
      15  | 50:35.34 |    3:35.70   |      227659      |     243853
      16  | 54:11.29 |    3:07.41   |      243854      |     257919
      17  | 57:18.70 |    4:30.57   |      257920      |     278226
      18  | 61:49.52 |    3:54.38   |      278227      |     295814
      19  | 65:44.15 |    3:45.70   |      295815      |     312759
      20  | 69:30.10 |    3:44.52   |      312760      |     329611
      21  | 73:14.62 |    3:43.51   |      329612      |     346387
      22  | 76:58.38 |    2:52.13   |      346388      |     359300
Характеристики диапазона извлечения и сообщения об ошибках
Выбранный диапазон
     Имя файла Анатолий Днепров - Собрание сочинений\Анатолий Днепров - Собрание сочинений.wav
     Пиковый уровень 96.6 %
     Скорость извлечения 6.8 X
     Качество диапазона 100.0 %
     CRC теста FA4B660E
     CRC копии FA4B660E
     Копирование... OK
Ошибок не произошло
AccurateRip: сводка
Трек  1  : извлечено точно (доверие 1)  [6FDD4ECE]  (AR v2)
Трек  2  : извлечено точно (доверие 1)  [6749CA6C]  (AR v2)
Трек  3  : извлечено точно (доверие 1)  [920B3A47]  (AR v2)
Трек  4  : извлечено точно (доверие 1)  [6F1D6785]  (AR v2)
Трек  5  : извлечено точно (доверие 1)  [EBA6DADB]  (AR v2)
Трек  6  : извлечено точно (доверие 1)  [DCADB0A0]  (AR v2)
Трек  7  : извлечено точно (доверие 1)  [6BCBB880]  (AR v2)
Трек  8  : извлечено точно (доверие 1)  [C690BE31]  (AR v2)
Трек  9  : извлечено точно (доверие 1)  [ECB28B92]  (AR v2)
Трек 10  : извлечено точно (доверие 1)  [B8BFB1F8]  (AR v2)
Трек 11  : извлечено точно (доверие 1)  [0E8A56FD]  (AR v2)
Трек 12  : извлечено точно (доверие 1)  [3D5B5580]  (AR v2)
Трек 13  : извлечено точно (доверие 1)  [48F83C63]  (AR v2)
Трек 14  : извлечено точно (доверие 1)  [678046EE]  (AR v2)
Трек 15  : извлечено точно (доверие 1)  [AFFB3348]  (AR v2)
Трек 16  : извлечено точно (доверие 1)  [6A3938D3]  (AR v2)
Трек 17  : извлечено точно (доверие 1)  [83937DF4]  (AR v2)
Трек 18  : извлечено точно (доверие 1)  [931F6639]  (AR v2)
Трек 19  : извлечено точно (доверие 1)  [069E3FD3]  (AR v2)
Трек 20  : извлечено точно (доверие 1)  [E6E0D314]  (AR v2)
Трек 21  : извлечено точно (доверие 1)  [D8F3D7F7]  (AR v2)
Трек 22  : извлечено точно (доверие 1)  [F7C1C647]  (AR v2)
Все треки извлечены точно
Конец отчёта
==== Контрольная сумма отчёта 721A5C6FE7AEE8C695F1E00FB849855F8A653ADE270A8A2DD6AF09ACFA52893B ====

Отчёт auCDtect Task manager&#58;

-----------------------
DON'T MODIFY THIS FILE
-----------------------
PERFORMER: auCDtect Task Manager, ver. 1.5.1RC6 build 1.5.1.7
Copyright (c) 2008-2010 y-soft. All rights reserved
http://y-soft.org
ANALYZER: auCDtect: CD records authenticity detector, version 0.8.2
Copyright (c) 2004 Oleg Berngardt. All rights reserved.
Copyright (c) 2004 Alexander Djourik. All rights reserved.
FILE: Анатолий Днепров - Собрание сочинений.flac
  Size: 556530054 Hash: EA5177FAF4A7B3C66198EF1AAFDDD8FB Accuracy: -m0
  Conclusion: CDDA 100%
  Signature: 10113FF90F1638F9D00E09B660294506324722EF
-
Яндекс.Метрика
Рейтинг@Mail.ru