Игорь Шаров (ех.Лесоповал) - Барышня и хулиган (2012) [FLAC|Lossless]<Шансон>

 

Создавать темы 16-Дек-2014 20:20

-Игорь Шаров (ех.Лесоповал) - Барышня и хулиган (2012)- Год: 2012
Страна-производитель диска: Россия
Издатель (лейбл): Квадро-Диск
Номер по каталогу: KTL 12-946
Жанр: Шансон
Продолжительность: 00:49:05
Кодек: FLAC
Битрейт: Lossless
Тип рипа: image+.cue
Треклист:
01. Мужик (2:53)
02. Друзья (3:55)
03. Барышня и хулиган (4:12)
04. Белый конь (3:55)
05. Осень и весна (3:30)
06. Три вокзала (3:46)
07. Свет любви (4:09)
08. Непогода на душе (3:34)
09. Дорога к храму (4:36)
10. Больше нечего мне сказать (3:37)
11. Три вокзала (live) (3:46)
12. Непогода на душе ( И.Шаров feat.Е.Пазенко) (3:17)
13. Друзья (И.Шаров, А.Федорков, В.Асмолов, Д.Прянов, А.Черкасов) (3:54)

Отчёт ЕАС&#58;

Exact Audio Copy V1.0 beta 3 from 29. August 2011
Отчёт EAC об извлечении, выполненном 26. января 2014, 14:49
Игорь Шаров / Барышня и хулиган
Дисковод: ASUS    DRW-24B3ST   Adapter: 2  ID: 0
Режим чтения                 : Достоверность
Использование точного потока : Да
Отключение кэша аудио        : Да
Использование указателей C2  : Нет
Коррекция смещения при чтении                     : 6
Способность читать области Lead-in и Lead-out     : Нет
Заполнение пропущенных сэмплов тишиной            : Да
Удаление блоков с тишиной в начале и конце        : Нет
При вычислениях CRC использовались нулевые сэмплы : Да
Интерфейс                                         : Встроенный Win32-интерфейс для Win NT/2000
Выходной формат : Внутренние WAV-операции
Формат сэмплов  : 44.100 Гц; 16 бит; стерео
TOC извлечённого CD
     Трек |   Старт  | Длительность | Начальный сектор | Конечный сектор
    ---------------------------------------------------------------------
       1  |  0:00.00 |    2:53.06   |           0      |      12980
       2  |  2:53.06 |    3:55.14   |       12981      |      30619
       3  |  6:48.20 |    4:11.59   |       30620      |      49503
       4  | 11:00.04 |    3:54.74   |       49504      |      67127
       5  | 14:55.03 |    3:30.29   |       67128      |      82906
       6  | 18:25.32 |    3:45.44   |       82907      |      99825
       7  | 22:11.01 |    4:09.13   |       99826      |     118513
       8  | 26:20.14 |    3:33.58   |      118514      |     134546
       9  | 29:53.72 |    4:36.14   |      134547      |     155260
      10  | 34:30.11 |    3:37.29   |      155261      |     171564
      11  | 38:07.40 |    3:46.00   |      171565      |     188514
      12  | 41:53.40 |    3:17.21   |      188515      |     203310
      13  | 45:10.61 |    3:54.12   |      203311      |     220872
Характеристики диапазона извлечения и сообщения об ошибках
Выбранный диапазон
     Имя файла Игорь Шаров - Барышня и хулиган\Игорь Шаров - Барышня и хулиган.wav
     Пиковый уровень 98.8 %
     Скорость извлечения 5.4 X
     Качество диапазона 100.0 %
     CRC теста 21F8580D
     CRC копии 21F8580D
     Копирование... OK
Ошибок не произошло
AccurateRip: сводка
Трек  1  отсутствует в базе данных
Трек  2  отсутствует в базе данных
Трек  3  отсутствует в базе данных
Трек  4  отсутствует в базе данных
Трек  5  отсутствует в базе данных
Трек  6  отсутствует в базе данных
Трек  7  отсутствует в базе данных
Трек  8  отсутствует в базе данных
Трек  9  отсутствует в базе данных
Трек 10  отсутствует в базе данных
Трек 11  отсутствует в базе данных
Трек 12  отсутствует в базе данных
Трек 13  отсутствует в базе данных
Ни одного трека нет в базе AccurateRip
Конец отчёта
==== Контрольная сумма отчёта D6A7F8799DD817C75B0873ECA5469E9F1C0D7896219F8D1F1ADDEEF9BAB0236F ====

Отчёт auCDtect Task manager&#58;

-----------------------
DON'T MODIFY THIS FILE
-----------------------
PERFORMER: auCDtect Task Manager, ver. 1.5.1RC6 build 1.5.1.7
Copyright (c) 2008-2010 y-soft. All rights reserved
http://y-soft.org
ANALYZER: auCDtect: CD records authenticity detector, version 0.8.2
Copyright (c) 2004 Oleg Berngardt. All rights reserved.
Copyright (c) 2004 Alexander Djourik. All rights reserved.
FILE: Игорь Шаров - Барышня и хулиган.flac
  Size: 354524263 Hash: 03951D32D4A0CB79148A592EA7A49135 Accuracy: -m0
  Conclusion: CDDA 99%
  Signature: 7DF6189EA203DEF6F6C190E3603B3F68E3B95B71
-
Яндекс.Метрика
Рейтинг@Mail.ru