Лариса и Иван Кучины - Из семейного альбома (1999) [FLAC|Lossless]<Шансон>

 

Создавать темы 16-Дек-2014 20:20

-Лариса и Иван Кучины - Из семейного альбома (1999)- Год: 1999
Страна-производитель: Россия
Лейбл: Classic Company
Жанр: Шансон
Продолжительность: 00:57:03
Кодек: FLAC
Битрейт: Lossless
Тип рипа: image+.cue
Треклист:
01 - Сломалась веточка
02 - На черных ресницах (Иван Кучин)
03 - Которая из «Б»
04 - Цыганская гитара
05 - Цветет сирень (Иван Кучин)
06 - Желтые свечи
07 - Мама,мама
08 - Обыкновенная (Иван Кучин)
09 - Девочка в лесу
10 - Бабий век
11 - На перроне вокзала (Иван Кучин)
12 - Откройте белую
13 - Черный платок
14 - Не уходи (Иван Кучин)
15 - Прохожий
16 - Явилось чадо

Отчёт ЕАС&#58;

Exact Audio Copy V1.0 beta 3 from 29. August 2011
Отчёт EAC об извлечении, выполненном 22. февраля 2014, 12:38
Лариса и Иван Кучины - Из семейного альбома
Дисковод: ASUS    DRW-1814BLT   Adapter: 1  ID: 1
Режим чтения                 : Достоверность
Использование точного потока : Да
Отключение кэша аудио        : Да
Использование указателей C2  : Нет
Коррекция смещения при чтении                     : 6
Способность читать области Lead-in и Lead-out     : Нет
Заполнение пропущенных сэмплов тишиной            : Да
Удаление блоков с тишиной в начале и конце        : Нет
При вычислениях CRC использовались нулевые сэмплы : Да
Интерфейс                                         : Встроенный Win32-интерфейс для Win NT/2000
Выходной формат : Внутренние WAV-операции
Формат сэмплов  : 44.100 Гц; 16 бит; стерео
TOC извлечённого CD
     Трек |   Старт  | Длительность | Начальный сектор | Конечный сектор
    ---------------------------------------------------------------------
       1  |  0:00.00 |    4:40.27   |           0      |      21026
       2  |  4:40.27 |    3:45.48   |       21027      |      37949
       3  |  8:26.00 |    3:26.03   |       37950      |      53402
       4  | 11:52.03 |    4:00.36   |       53403      |      71438
       5  | 15:52.39 |    4:06.74   |       71439      |      89962
       6  | 19:59.38 |    3:55.07   |       89963      |     107594
       7  | 23:54.45 |    3:26.04   |      107595      |     123048
       8  | 27:20.49 |    3:36.72   |      123049      |     139320
       9  | 30:57.46 |    3:38.41   |      139321      |     155711
      10  | 34:36.12 |    3:57.39   |      155712      |     173525
      11  | 38:33.51 |    3:48.52   |      173526      |     190677
      12  | 42:22.28 |    3:48.03   |      190678      |     207780
      13  | 46:10.31 |    4:52.46   |      207781      |     229726
      14  | 51:03.02 |    4:11.57   |      229727      |     248608
      15  | 55:14.59 |    3:55.35   |      248609      |     266268
      16  | 59:10.19 |    4:43.19   |      266269      |     287512
Характеристики диапазона извлечения и сообщения об ошибках
Выбранный диапазон
     Имя файла Лариса и Иван Кучины - Из семейного альбома.wav
     Пиковый уровень 98.8 %
     Скорость извлечения 2.5 X
     Качество диапазона 100.0 %
     CRC теста D746EA07
     CRC копии D746EA07
     Копирование... OK
Ошибок не произошло
AccurateRip: сводка
Трек  1  отсутствует в базе данных
Трек  2  отсутствует в базе данных
Трек  3  отсутствует в базе данных
Трек  4  отсутствует в базе данных
Трек  5  отсутствует в базе данных
Трек  6  отсутствует в базе данных
Трек  7  отсутствует в базе данных
Трек  8  отсутствует в базе данных
Трек  9  отсутствует в базе данных
Трек 10  отсутствует в базе данных
Трек 11  отсутствует в базе данных
Трек 12  отсутствует в базе данных
Трек 13  отсутствует в базе данных
Трек 14  отсутствует в базе данных
Трек 15  отсутствует в базе данных
Трек 16  отсутствует в базе данных
Ни одного трека нет в базе AccurateRip
Конец отчёта
==== Контрольная сумма отчёта 13D22B2C7E93D91D9417A0638ADFE737BE03B55A3BEBB812BE703451EDC6DF94 ====

Отчёт auCDtect Task manager&#58;

-----------------------
DON'T MODIFY THIS FILE
-----------------------
PERFORMER: auCDtect Task Manager, ver. 1.5.1RC6 build 1.5.1.7
Copyright (c) 2008-2010 y-soft. All rights reserved
http://y-soft.org
ANALYZER: auCDtect: CD records authenticity detector, version 0.8.2
Copyright (c) 2004 Oleg Berngardt. All rights reserved.
Copyright (c) 2004 Alexander Djourik. All rights reserved.
FILE: Лариса и Иван Кучины - Из семейного альбома.flac
  Size: 500308221 Hash: E65F1A13F5DE9CDD043AC1D41D07CC25 Accuracy: -m0
  Conclusion: CDDA 85%
  Signature: 757A8AC14F334CD1CA1E0714171E5D295DCBC470
-
Яндекс.Метрика
Рейтинг@Mail.ru