Григорий Лепс - Гангстер №1 (2014) [FLAC|Lossless]<Pop, Pop Rock>

 

Создавать темы 16-Дек-2014 20:20

-Григорий Лепс - Гангстер №1 (2014)- Лейбл: Никитин
Каталог: UMGCD14-447
Год: 2014
Жанр: Pop, Pop Rock
Продолжительность: 01:03:25
Кодек: FLAC (image+.cue)
Битрейт: Lossless
Треклист:
01. Не уверен
02. Стаканы
03. Господи, дай мне сил
04. Больше не будет
05. На мосту
06. Если хочешь - уходи
07. Ты пришла...
08. Московская песня
09. Выбрось из головы
10. Быстрее...
11. Ангел ушёл в запой [Бокарёву А. Р. посвящается]
12. Брат-никотин [feat. Артём Лоик & Тимати]
13. Плен [feat. Артём Лоик]
14. Небо на ладони
15. Зеркала [feat. Ани Лорак]
16. Новый год

Отчёт ЕАС&#58;

Exact Audio Copy V1.0 beta 3 from 29. August 2011
Отчёт EAC об извлечении, выполненном 6. марта 2014, 16:13
Григорий Лепс / Гангстер №1
Дисковод: Optiarc DVD RW AD-7200S   Adapter: 2  ID: 1
Режим чтения                 : Достоверность
Использование точного потока : Да
Отключение кэша аудио        : Да
Использование указателей C2  : Нет
Коррекция смещения при чтении                     : 48
Способность читать области Lead-in и Lead-out     : Нет
Заполнение пропущенных сэмплов тишиной            : Да
Удаление блоков с тишиной в начале и конце        : Нет
При вычислениях CRC использовались нулевые сэмплы : Да
Интерфейс                                         : Встроенный Win32-интерфейс для Win NT/2000
Выходной формат : Внутренние WAV-операции
Формат сэмплов  : 44.100 Гц; 16 бит; стерео
TOC извлечённого CD
     Трек |   Старт  | Длительность | Начальный сектор | Конечный сектор
    ---------------------------------------------------------------------
       1  |  0:00.00 |    7:11.22   |           0      |      32346
       2  |  7:11.22 |    2:38.42   |       32347      |      44238
       3  |  9:49.64 |    3:05.51   |       44239      |      58164
       4  | 12:55.40 |    4:37.38   |       58165      |      78977
       5  | 17:33.03 |    3:37.52   |       78978      |      95304
       6  | 21:10.55 |    3:32.56   |       95305      |     111260
       7  | 24:43.36 |    3:35.57   |      111261      |     127442
       8  | 28:19.18 |    3:31.23   |      127443      |     143290
       9  | 31:50.41 |    3:29.52   |      143291      |     159017
      10  | 35:20.18 |    4:08.51   |      159018      |     177668
      11  | 39:28.69 |    3:23.33   |      177669      |     192926
      12  | 42:52.27 |    4:00.73   |      192927      |     210999
      13  | 46:53.25 |    4:21.55   |      211000      |     230629
      14  | 51:15.05 |    3:50.48   |      230630      |     247927
      15  | 55:05.53 |    3:45.12   |      247928      |     264814
      16  | 58:50.65 |    4:34.33   |      264815      |     285397
Характеристики диапазона извлечения и сообщения об ошибках
Выбранный диапазон
     Имя файла E:\TORRENTS\Мои раздачи\Григорий Лепс - Гангстер №1 [2014]\Григорий Лепс - Гангстер №1 [2014].wav
     Пиковый уровень 100.0 %
     Скорость извлечения 4.2 X
     Качество диапазона 100.0 %
     CRC теста B7324D58
     CRC копии B7324D58
     Копирование... OK
Ошибок не произошло
Конец отчёта
==== Контрольная сумма отчёта 44AE33C38CB0E84C5AD7601B1714FEB6A9FA77A94066F5ECD503596B80FB2067 ====

Отчёт auCDtect Task manager&#58;

-----------------------
DON'T MODIFY THIS FILE
-----------------------
PERFORMER: auCDtect Task Manager, ver. 1.5.1RC4 build 1.5.1.5
Copyright (c) 2008-2010 y-soft. All rights reserved
http://y-soft.org
ANALYZER: auCDtect: CD records authenticity detector, version 0.8.2
Copyright (c) 2004 Oleg Berngardt. All rights reserved.
Copyright (c) 2004 Alexander Djourik. All rights reserved.
FILE: Григорий Лепс - Гангстер №1 [2014].flac
  Size: 493486867 Hash: ADD191F4551651CAA7B16F91C4F94B0C Accuracy: -m0
  Conclusion: CDDA 100%
  Signature: 47B103AA311BDF35FE65E5B3FBF52D59C385C80C

Содержимое индексной карты&#58;

REM GENRE Pop
REM DATE 2014
REM DISCID CF0EDD10
REM COMMENT "ExactAudioCopy v1.0b3"
PERFORMER "Григорий Лепс"
TITLE "Гангстер №1"
FILE "Григорий Лепс - Гангстер №1 [2014].flac" WAVE
  TRACK 01 AUDIO
    TITLE "Не уверен"
    PERFORMER "Григорий Лепс"
    INDEX 01 00:00:00
  TRACK 02 AUDIO
    TITLE "Стаканы"
    PERFORMER "Григорий Лепс"
    INDEX 01 07:11:22
  TRACK 03 AUDIO
    TITLE "Господи, дай мне сил"
    PERFORMER "Григорий Лепс"
    INDEX 01 09:49:64
  TRACK 04 AUDIO
    TITLE "Больше не будет"
    PERFORMER "Григорий Лепс"
    INDEX 01 12:55:40
  TRACK 05 AUDIO
    TITLE "На мосту"
    PERFORMER "Григорий Лепс"
    INDEX 01 17:33:03
  TRACK 06 AUDIO
    TITLE "Если хочешь - уходи"
    PERFORMER "Григорий Лепс"
    INDEX 01 21:10:55
  TRACK 07 AUDIO
    TITLE "Ты пришла..."
    PERFORMER "Григорий Лепс"
    INDEX 01 24:43:36
  TRACK 08 AUDIO
    TITLE "Московская песня"
    PERFORMER "Григорий Лепс"
    INDEX 01 28:19:18
  TRACK 09 AUDIO
    TITLE "Выбрось из головы"
    PERFORMER "Григорий Лепс"
    INDEX 01 31:50:41
  TRACK 10 AUDIO
    TITLE "Быстрее..."
    PERFORMER "Григорий Лепс"
    INDEX 01 35:20:18
  TRACK 11 AUDIO
    TITLE "Ангел ушёл в запой [А. Бокареву посвящается]"
    PERFORMER "Григорий Лепс"
    INDEX 01 39:28:69
  TRACK 12 AUDIO
    TITLE "Брат Никотин"
    PERFORMER "Григорий Лепс [feat. Артём Лоик & Тимати]"
    INDEX 01 42:52:27
  TRACK 13 AUDIO
    TITLE "Плен"
    PERFORMER "Григорий Лепс [feat. Артём Лоик]"
    INDEX 01 46:53:25
  TRACK 14 AUDIO
    TITLE "Небо на ладони"
    PERFORMER "Григорий Лепс"
    INDEX 01 51:15:05
  TRACK 15 AUDIO
    TITLE "Зеркала"
    PERFORMER "Григорий Лепс  [feat. Ани Лорак]"
    INDEX 01 55:05:53
  TRACK 16 AUDIO
    TITLE "Новый год"
    PERFORMER "Григорий Лепс"
    INDEX 01 58:50:65
-
Яндекс.Метрика
Рейтинг@Mail.ru