Граф Гагарин - Герой 90-ых (2012) [FLAC|Lossless]<Шансон>

 

Создавать темы 16-Дек-2014 20:20

-Граф Гагарин - Герой 90-ых (2012)- Год: 2012
Страна-производитель диска: Россия
Издатель (лейбл): Квадро Диск
Номер по каталогу: KTL 12-694
Жанр: Шансон
Продолжительность: 01:15:26
Кодек: FLAC
Битрейт: Lossless
Тип рипа: image+.cue
Треклист:
01. Герой 90-х (4:37)
02. Пуля (3:48)
03. Чикаго 30-го года (5:08)
04. Мама (5:27)
05. Детка (2:50)
06. Индокитай (4:59)
07. Мой ангел (3:15)
08. Пистолет (3:33)
09. Флибустьер (4:29)
10. Текила (Feat Игорек) (3:54)
11. Где моя любовь живет (Feat Леонсия Эрденко) (3:47)
12. Сонька, золотая ручка (5:17)
13. Матроска (3:38)
14. А я, дура, ждала! (3:56)
15. Стриптиз (3:50)
16. Бетельгейзе (4:09)
17. На Абордаж! (3:53)
18. Гори, звезда моя, не падай… (4:57)

Отчёт ЕАС&#58;

Exact Audio Copy V1.0 beta 3 from 29. August 2011
Отчёт EAC об извлечении, выполненном 13. марта 2014, 13:52
Граф Гагарин / Герой 90-ых
Дисковод: ASUS    DRW-24B3ST   Adapter: 1  ID: 1
Режим чтения                 : Достоверность
Использование точного потока : Да
Отключение кэша аудио        : Да
Использование указателей C2  : Нет
Коррекция смещения при чтении                     : 6
Способность читать области Lead-in и Lead-out     : Нет
Заполнение пропущенных сэмплов тишиной            : Да
Удаление блоков с тишиной в начале и конце        : Нет
При вычислениях CRC использовались нулевые сэмплы : Да
Интерфейс                                         : Встроенный Win32-интерфейс для Win NT/2000
Выходной формат : Внутренние WAV-операции
Формат сэмплов  : 44.100 Гц; 16 бит; стерео
TOC извлечённого CD
     Трек |   Старт  | Длительность | Начальный сектор | Конечный сектор
    ---------------------------------------------------------------------
       1  |  0:00.00 |    4:36.68   |           0      |      20767
       2  |  4:36.68 |    3:48.37   |       20768      |      37904
       3  |  8:25.30 |    5:08.00   |       37905      |      61004
       4  | 13:33.30 |    5:27.13   |       61005      |      85542
       5  | 19:00.43 |    2:50.21   |       85543      |      98313
       6  | 21:50.64 |    4:58.53   |       98314      |     120716
       7  | 26:49.42 |    3:14.63   |      120717      |     135329
       8  | 30:04.30 |    3:32.52   |      135330      |     151281
       9  | 33:37.07 |    4:28.48   |      151282      |     171429
      10  | 38:05.55 |    3:54.08   |      171430      |     188987
      11  | 41:59.63 |    3:47.03   |      188988      |     206015
      12  | 45:46.66 |    5:16.47   |      206016      |     229762
      13  | 51:03.38 |    3:38.23   |      229763      |     246135
      14  | 54:41.61 |    3:55.61   |      246136      |     263821
      15  | 58:37.47 |    3:50.28   |      263822      |     281099
      16  | 62:28.00 |    4:08.57   |      281100      |     299756
      17  | 66:36.57 |    3:52.57   |      299757      |     317213
      18  | 70:29.39 |    4:56.73   |      317214      |     339486
Характеристики диапазона извлечения и сообщения об ошибках
Выбранный диапазон
     Имя файла Граф Гагарин\2012 - Герой 90-х\Граф Гагарин - Герой 90-ых.wav
     Пиковый уровень 97.9 %
     Скорость извлечения 6.5 X
     Качество диапазона 99.9 %
     CRC теста 1A4CCEB4
     CRC копии 1A4CCEB4
     Копирование... OK
Ошибок не произошло
AccurateRip: сводка
Трек  1  отсутствует в базе данных
Трек  2  отсутствует в базе данных
Трек  3  отсутствует в базе данных
Трек  4  отсутствует в базе данных
Трек  5  отсутствует в базе данных
Трек  6  отсутствует в базе данных
Трек  7  отсутствует в базе данных
Трек  8  отсутствует в базе данных
Трек  9  отсутствует в базе данных
Трек 10  отсутствует в базе данных
Трек 11  отсутствует в базе данных
Трек 12  отсутствует в базе данных
Трек 13  отсутствует в базе данных
Трек 14  отсутствует в базе данных
Трек 15  отсутствует в базе данных
Трек 16  отсутствует в базе данных
Трек 17  отсутствует в базе данных
Трек 18  отсутствует в базе данных
Ни одного трека нет в базе AccurateRip
Конец отчёта
==== Контрольная сумма отчёта B22237E36B596199EC598F9709E594E7B30C601C20D53FD7E8A0C9BF015BC064 ====

Отчёт auCDtect Task manager&#58;

-----------------------
DON'T MODIFY THIS FILE
-----------------------
PERFORMER: auCDtect Task Manager, ver. 1.5.1RC6 build 1.5.1.7
Copyright (c) 2008-2010 y-soft. All rights reserved
http://y-soft.org
ANALYZER: auCDtect: CD records authenticity detector, version 0.8.2
Copyright (c) 2004 Oleg Berngardt. All rights reserved.
Copyright (c) 2004 Alexander Djourik. All rights reserved.
FILE: Граф Гагарин - Герой 90-ых.flac
  Size: 575227175 Hash: 60BCD415B7F07E49D274DBAEF6065E98 Accuracy: -m0
  Conclusion: CDDA 100%
  Signature: DD702F0387BC26058575240FC653F146456A309B
-
Яндекс.Метрика
Рейтинг@Mail.ru