Ильдар Южный - Золотой фонд Гостелерадио СССР (2012) [FLAC|Lossless]<Шансон-ретро>

 

Создавать темы 16-Дек-2014 20:20

-Ильдар Южный - Золотой фонд Гостелерадио СССР (2012)- Год: 2012
Страна-производитель диска: Россия
Жанр: Шансон-ретро
Продолжительность: 00:41:17
Кодек: FLAC
Битрейт: Lossless
Тип рипа: image+.cue
Треклист:
01. Спят курганы тёмные (3:25)
02. Каким меня ты ядом напоила (3:53)
03. У чёрного моря (3:02)
04. Осенняя роса (4:45)
05. Чёрным вороном ночь (3:31)
06. Куплеты Курочкина (3:29)
07. По тундре (5:51)
08. Как много девушек хороших (3:39)
09. Раскинулось море широко (3:53)
10. Любимый город (2:49)
11. Дорога домой (2:59)

Отчёт ЕАС&#58;

Exact Audio Copy V1.0 beta 3 from 29. August 2011
Отчёт EAC об извлечении, выполненном 23. февраля 2014, 11:45
Ильдар Южный / Золотой фонд Гостелерадио СССР
Дисковод: ASUS    DRW-1814BLT   Adapter: 1  ID: 1
Режим чтения                 : Достоверность
Использование точного потока : Да
Отключение кэша аудио        : Да
Использование указателей C2  : Нет
Коррекция смещения при чтении                     : 6
Способность читать области Lead-in и Lead-out     : Нет
Заполнение пропущенных сэмплов тишиной            : Да
Удаление блоков с тишиной в начале и конце        : Нет
При вычислениях CRC использовались нулевые сэмплы : Да
Интерфейс                                         : Встроенный Win32-интерфейс для Win NT/2000
Выходной формат : Внутренние WAV-операции
Формат сэмплов  : 44.100 Гц; 16 бит; стерео
TOC извлечённого CD
     Трек |   Старт  | Длительность | Начальный сектор | Конечный сектор
    ---------------------------------------------------------------------
       1  |  0:00.00 |    3:25.33   |           0      |      15407
       2  |  3:25.33 |    3:53.16   |       15408      |      32898
       3  |  7:18.49 |    3:02.17   |       32899      |      46565
       4  | 10:20.66 |    4:44.64   |       46566      |      67929
       5  | 15:05.55 |    3:31.00   |       67930      |      83754
       6  | 18:36.55 |    3:29.15   |       83755      |      99444
       7  | 22:05.70 |    5:51.04   |       99445      |     125773
       8  | 27:56.74 |    3:39.00   |      125774      |     142198
       9  | 31:35.74 |    3:52.63   |      142199      |     159661
      10  | 35:28.62 |    2:48.60   |      159662      |     172321
      11  | 38:17.47 |    2:59.11   |      172322      |     185757
Характеристики диапазона извлечения и сообщения об ошибках
Выбранный диапазон
     Имя файла Ильдар Южный - Золотой фонд Гостелерадио СССР\Ильдар Южный - Золотой фонд Гостелерадио СССР.wav
     Пиковый уровень 98.8 %
     Скорость извлечения 4.1 X
     Качество диапазона 100.0 %
     CRC теста 90A23ADA
     CRC копии 90A23ADA
     Копирование... OK
Ошибок не произошло
AccurateRip: сводка
Трек  1  отсутствует в базе данных
Трек  2  отсутствует в базе данных
Трек  3  отсутствует в базе данных
Трек  4  отсутствует в базе данных
Трек  5  отсутствует в базе данных
Трек  6  отсутствует в базе данных
Трек  7  отсутствует в базе данных
Трек  8  отсутствует в базе данных
Трек  9  отсутствует в базе данных
Трек 10  отсутствует в базе данных
Трек 11  отсутствует в базе данных
Ни одного трека нет в базе AccurateRip
Конец отчёта
==== Контрольная сумма отчёта B0B1DE5DC501EFFC05C35C1B1D9C503583B0E76EBD782E8F7EDE73B40B282CF0 ====

Отчёт auCDtect Task manager&#58;

-----------------------
DON'T MODIFY THIS FILE
-----------------------
PERFORMER: auCDtect Task Manager, ver. 1.5.1RC6 build 1.5.1.7
Copyright (c) 2008-2010 y-soft. All rights reserved
http://y-soft.org
ANALYZER: auCDtect: CD records authenticity detector, version 0.8.2
Copyright (c) 2004 Oleg Berngardt. All rights reserved.
Copyright (c) 2004 Alexander Djourik. All rights reserved.
FILE: Ильдар Южный - Золотой фонд Гостелерадио СССР.flac
  Size: 330129107 Hash: E4123C903D0F40C1AF041CFDDE61324C Accuracy: -m0
  Conclusion: CDDA 99%
  Signature: 8D0B2D688B15DB8AE0EEF2ABF0B4007772DFA9CB
-
Яндекс.Метрика
Рейтинг@Mail.ru