Братья Радченко - И снова в путь... (2012) [FLAC|Lossless]<Шансон>

 

Создавать темы 16-Дек-2014 20:20

-Братья Радченко - И снова в путь... (2012)- Год: 2012
Страна-производитель диска: Россия
Издатель (лейбл): Классик Компани
Номер по каталогу: СС CD 46/12
Жанр: Шансон
Продолжительность: 00:44:11
Кодек: FLAC
Битрейт: Lossless
Тип рипа: image+.cue
Треклист:
01. Учил отец (5:33)
02. Я пишу тебе, мама (4:27)
03. Дом, дом (4:38)
04. Не улетай, душа (4:40)
05. Дарю цветы (5:26)
06. Голубая вешняя вода (3:19)
07. Белая роща (3:25)
08. Перепелочка (4:35)
09. Васильки (3:45)
10. И снова в путь (4:23)

Отчёт ЕАС&#58;

Exact Audio Copy V1.0 beta 3 from 19. August 2011
Отчёт EAC об извлечении, выполненном 16. марта 2014, 21:15
Братья Радченко / И снова в путь
Дисковод: ASUS    DRW-1814BLT   Adapter: 2  ID: 0
Режим чтения                 : Достоверность
Использование точного потока : Да
Отключение кэша аудио        : Да
Использование указателей C2  : Нет
Коррекция смещения при чтении                     : 6
Способность читать области Lead-in и Lead-out     : Нет
Заполнение пропущенных сэмплов тишиной            : Да
Удаление блоков с тишиной в начале и конце        : Нет
При вычислениях CRC использовались нулевые сэмплы : Да
Интерфейс                                         : Встроенный Win32-интерфейс для Win NT/2000
Выходной формат : Внутренние WAV-операции
Формат сэмплов  : 44.100 Гц; 16 бит; стерео
TOC извлечённого CD
     Трек |   Старт  | Длительность | Начальный сектор | Конечный сектор
    ---------------------------------------------------------------------
       1  |  0:00.00 |    5:32.41   |           0      |      24940
       2  |  5:32.41 |    4:27.02   |       24941      |      44967
       3  |  9:59.43 |    4:38.00   |       44968      |      65817
       4  | 14:37.43 |    4:39.65   |       65818      |      86807
       5  | 19:17.33 |    5:26.27   |       86808      |     111284
       6  | 24:43.60 |    3:19.28   |      111285      |     126237
       7  | 28:03.13 |    3:25.06   |      126238      |     141618
       8  | 31:28.19 |    4:35.07   |      141619      |     162250
       9  | 36:03.26 |    3:44.57   |      162251      |     179107
      10  | 39:48.08 |    4:23.17   |      179108      |     198849
Характеристики диапазона извлечения и сообщения об ошибках
Выбранный диапазон
     Имя файла Братья Радченко - И снова в путь - 2012\Братья Радченко - И снова в путь.wav
     Пиковый уровень 94.6 %
     Скорость извлечения 3.0 X
     Качество диапазона 99.9 %
     CRC теста 20ADDEA9
     CRC копии 20ADDEA9
     Копирование... OK
Ошибок не произошло
AccurateRip: сводка
Трек  1  отсутствует в базе данных
Трек  2  отсутствует в базе данных
Трек  3  отсутствует в базе данных
Трек  4  отсутствует в базе данных
Трек  5  отсутствует в базе данных
Трек  6  отсутствует в базе данных
Трек  7  отсутствует в базе данных
Трек  8  отсутствует в базе данных
Трек  9  отсутствует в базе данных
Трек 10  отсутствует в базе данных
Ни одного трека нет в базе AccurateRip
Конец отчёта
==== Контрольная сумма отчёта 77FE9D4EBF335E0D90D7F42C285CDC8698FA291E393615EA6E3B945FF3953FB2 ====

Отчёт auCDtect Task manager&#58;

-----------------------
DON'T MODIFY THIS FILE
-----------------------
PERFORMER: auCDtect Task Manager, ver. 1.5.1RC6 build 1.5.1.7
Copyright (c) 2008-2010 y-soft. All rights reserved
http://y-soft.org
ANALYZER: auCDtect: CD records authenticity detector, version 0.8.2
Copyright (c) 2004 Oleg Berngardt. All rights reserved.
Copyright (c) 2004 Alexander Djourik. All rights reserved.
FILE: Братья Радченко - И снова в путь.flac
  Size: 299984119 Hash: 3F5990A3608283EF29745D22EA6BC0D0 Accuracy: -m0
  Conclusion: MPEG 95%
  Signature: 4DDB9BBB55AB198F2D55606055496C43625D808C
-
Яндекс.Метрика
Рейтинг@Mail.ru