[ Сегодня на трекере фрилич! Идет свободное скачивание без начисления Download ]

Борис Драгилев - Такой и есть (2007) [FLAC|Lossless]<Шансон>

 

Создавать темы 16-Дек-2014 20:20

-Борис Драгилев - Такой и есть (2007)- Год: 2007
Производитель диска: Россия - (С)&(P) Квадро-Диск KTL 07-628
Жанр: Шансон
Продолжительность: 00:40:45
Кодек: FLAC
Битрейт: Lossless
Тип рипа: image+.cue
Треклист:
01. Где-то (3:50)
02. Колька и Борька (2:49)
03. Две клеточки добра (4:14)
04. Я ухожу (3:13)
05. Анюта и спонсор (2:44)
06. Вы такая красивая (4:00)
07. На зоне (3:43)
08. Ветерок (2:57)
09. Женщина - друг (3:17)
10. Такой и есть (3:21)
11. Колька Гаев (2:56)
12. Все сбудется (3:40)

Отчёт ЕАС&#58;

Exact Audio Copy V0.99 prebeta 5 from 4. May 2009
Отчёт EAC об извлечении, выполненном 08. апреля 2014, 08:07
Борис Драгилев / Такой и есть
Дисковод: Optiarc DVD RW AD-5170A   Adapter: 0  ID: 1
Режим чтения                 : Достоверность
Использование точного потока : Да
Отключение кэша аудио        : Да
Использование указателей C2  : Нет
Коррекция смещения при чтении                     : 48
Способность читать области Lead-in и Lead-out     : Нет
Заполнение пропущенных сэмплов тишиной            : Да
Удаление блоков с тишиной в начале и конце        : Нет
При вычислениях CRC использовались нулевые сэмплы : Да
Интерфейс                                         : Встроенный Win32-интерфейс для Win NT/2000
Выходной формат : Внутренние WAV-операции
Формат сэмплов  : 44.100 Гц; 16 бит; стерео
TOC извлечённого CD
     Трек |   Старт  | Длительность | Начальный сектор | Конечный сектор
    ---------------------------------------------------------------------
       1  |  0:00.00 |    3:50.34   |           0      |      17283
       2  |  3:50.34 |    2:49.06   |       17284      |      29964
       3  |  6:39.40 |    4:14.20   |       29965      |      49034
       4  | 10:53.60 |    3:13.03   |       49035      |      63512
       5  | 14:06.63 |    2:43.42   |       63513      |      75779
       6  | 16:50.30 |    4:00.17   |       75780      |      93796
       7  | 20:50.47 |    3:42.41   |       93797      |     110487
       8  | 24:33.13 |    2:56.57   |      110488      |     123744
       9  | 27:29.70 |    3:16.48   |      123745      |     138492
      10  | 30:46.43 |    3:20.47   |      138493      |     153539
      11  | 34:07.15 |    2:55.43   |      153540      |     166707
      12  | 37:02.58 |    3:40.22   |      166708      |     183229
Характеристики диапазона извлечения и сообщения об ошибках
Выбранный диапазон
     Имя файла \Борис Драгилев - Такой и есть\Борис Драгилев - Такой и есть.wav
     Пиковый уровень 97.9 %
     Качество диапазона 100.0 %
     CRC теста C9470234
     CRC копии C9470234
     Копирование... OK
Ошибок не произошло
AccurateRip: сводка
Трек  1  нет в базе данных
Трек  2  нет в базе данных
Трек  3  нет в базе данных
Трек  4  нет в базе данных
Трек  5  нет в базе данных
Трек  6  нет в базе данных
Трек  7  нет в базе данных
Трек  8  нет в базе данных
Трек  9  нет в базе данных
Трек 10  нет в базе данных
Трек 11  нет в базе данных
Трек 12  нет в базе данных
Ни одного трека нет в базе AccurateRip
Конец отчёта

Отчёт auCDtect Task manager&#58;

-----------------------
DON'T MODIFY THIS FILE
-----------------------
PERFORMER: auCDtect Task Manager, ver. 1.5.1RC6 build 1.5.1.7
Copyright (c) 2008-2010 y-soft. All rights reserved
http://y-soft.org
ANALYZER: auCDtect: CD records authenticity detector, version 0.8.2
Copyright (c) 2004 Oleg Berngardt. All rights reserved.
Copyright (c) 2004 Alexander Djourik. All rights reserved.
FILE: Борис Драгилев - Такой и есть.flac
  Size: 285819444 Hash: 98101CFFCBCDDA5BED4015BF601E859E Accuracy: -m0
  Conclusion: CDDA 99%
  Signature: C03E757C51E575BE4956B71DE0A8CFF42BD998C1
-
Яндекс.Метрика
Рейтинг@Mail.ru