[ Сегодня на трекере фрилич! Идет свободное скачивание без начисления Download ]

Виктор Ночной - Снег (2001) [FLAC|Lossless]<Шансон>

 

Создавать темы 16-Дек-2014 20:20

-Виктор Ночной - Снег (2001)- Год: 2001
Страна-производитель диска: Россия
Издатель (лейбл): RDM
Номер по каталогу: CDRDM 012271
Жанр: Шансон
Продолжительность: 00:48:42
Кодек: FLAC
Битрейт: Lossless
Тип рипа: image+.cue
Треклист:
01. Снег (4:27)
02. Дни вдвоём (4:40)
03. Белый снег (4:51)
04. Первый бал (2:57)
05. Первый снег (8:24)
06. В ожидании весны (3:37)
07. Месяц май (4:45)
08. Грустная (5:09)
09. Нью-Йорк (3:52)
10. Я забуду про тебя (6:00)

Отчёт ЕАС&#58;

Exact Audio Copy V0.99 prebeta 5 from 4. May 2009
Отчёт EAC об извлечении, выполненном 08. апреля 2014, 21:03
Виктор Ночной / Снег
Дисковод: ASUS    DRW-1814BLT   Adapter: 2  ID: 0
Режим чтения                 : Достоверность
Использование точного потока : Да
Отключение кэша аудио        : Да
Использование указателей C2  : Нет
Коррекция смещения при чтении                     : 6
Способность читать области Lead-in и Lead-out     : Нет
Заполнение пропущенных сэмплов тишиной            : Да
Удаление блоков с тишиной в начале и конце        : Нет
При вычислениях CRC использовались нулевые сэмплы : Да
Интерфейс                                         : Встроенный Win32-интерфейс для Win NT/2000
Выходной формат : Внутренние WAV-операции
Формат сэмплов  : 44.100 Гц; 16 бит; стерео
TOC извлечённого CD
     Трек |   Старт  | Длительность | Начальный сектор | Конечный сектор
    ---------------------------------------------------------------------
       1  |  0:00.00 |    4:27.33   |           0      |      20057
       2  |  4:27.33 |    4:39.56   |       20058      |      41038
       3  |  9:07.14 |    4:51.13   |       41039      |      62876
       4  | 13:58.27 |    2:57.22   |       62877      |      76173
       5  | 16:55.49 |    8:23.61   |       76174      |     113959
       6  | 25:19.35 |    3:37.18   |      113960      |     130252
       7  | 28:56.53 |    4:44.53   |      130253      |     151605
       8  | 33:41.31 |    5:08.40   |      151606      |     174745
       9  | 38:49.71 |    3:51.42   |      174746      |     192112
      10  | 42:41.38 |    6:00.37   |      192113      |     219149
Характеристики диапазона извлечения и сообщения об ошибках
Выбранный диапазон
     Имя файла \Виктор Ночной - Снег\Виктор Ночной - Снег.wav
     Пиковый уровень 100.0 %
     Качество диапазона 100.0 %
     CRC теста BE0D8782
     CRC копии BE0D8782
     Копирование... OK
Ошибок не произошло
AccurateRip: сводка
Трек  1  нет в базе данных
Трек  2  нет в базе данных
Трек  3  нет в базе данных
Трек  4  нет в базе данных
Трек  5  нет в базе данных
Трек  6  нет в базе данных
Трек  7  нет в базе данных
Трек  8  нет в базе данных
Трек  9  нет в базе данных
Трек 10  нет в базе данных
Ни одного трека нет в базе AccurateRip
Конец отчёта

Отчёт auCDtect Task manager&#58;

-----------------------
DON'T MODIFY THIS FILE
-----------------------
PERFORMER: auCDtect Task Manager, ver. 1.5.1RC6 build 1.5.1.7
Copyright (c) 2008-2010 y-soft. All rights reserved
http://y-soft.org
ANALYZER: auCDtect: CD records authenticity detector, version 0.8.2
Copyright (c) 2004 Oleg Berngardt. All rights reserved.
Copyright (c) 2004 Alexander Djourik. All rights reserved.
FILE: Виктор Ночной - Снег.flac
  Size: 355553311 Hash: 5FE8467D84A262AFA712A4556B0FE068 Accuracy: -m0
  Conclusion: CDDA 100%
  Signature: BA93969C16FCEA94DB8BF1594B22178CD6BF0CF5
-
Яндекс.Метрика
Рейтинг@Mail.ru