[ Сегодня на трекере фрилич! Идет свободное скачивание без начисления Download ]

Вячеслав Ворон - Жизнь блатная моя (1997) [FLAC|Lossless]<Шансон>

 

Создавать темы 16-Дек-2014 20:20

-Вячеслав Ворон - Жизнь блатная моя (1997)- Год: 1997
Страна-производитель диска: Россия
Жанр: Шансон
Продолжительность: 00:42:31
Кодек: FLAC
Битрейт: Lossless
Тип рипа: image+.cue
Треклист:
01. Жизнь блатная моя (4:42)
02. Дождь (5:04)
03. Двери (5:02)
04. Тюремный романс (3:17)
05. Плач гитары (4:40)
06. Прощай (4:25)
07. Эшелон (3:51)
08. Напиши (4:48)
09. Я вернулся домой (3:16)
10. Не стреляйте, братва! (3:25)

Отчёт ЕАС&#58;

Exact Audio Copy V0.99 prebeta 5 from 4. May 2009
Отчёт EAC об извлечении, выполненном 7. апреля 2014, 23:05
Вячеслав Ворон / Жизнь блатная моя
Дисковод: _NEC    DVD_RW ND-3500AG   Adapter: 3  ID: 0
Режим чтения                 : Достоверность
Использование точного потока : Да
Отключение кэша аудио        : Да
Использование указателей C2  : Нет
Коррекция смещения при чтении                     : 48
Способность читать области Lead-in и Lead-out     : Нет
Заполнение пропущенных сэмплов тишиной            : Да
Удаление блоков с тишиной в начале и конце        : Нет
При вычислениях CRC использовались нулевые сэмплы : Да
Интерфейс                                         : Установленный внешний ASPI-интерфейс
Выходной формат : Внутренние WAV-операции
Формат сэмплов  : 44.100 Гц; 16 бит; стерео
TOC извлечённого CD
     Трек |   Старт  | Длительность | Начальный сектор | Конечный сектор
    ---------------------------------------------------------------------
       1  |  0:00.00 |    4:42.00   |           0      |      21149
       2  |  4:42.00 |    5:04.04   |       21150      |      43953
       3  |  9:46.04 |    5:02.12   |       43954      |      66615
       4  | 14:48.16 |    3:16.71   |       66616      |      81386
       5  | 18:05.12 |    4:40.04   |       81387      |     102390
       6  | 22:45.16 |    4:25.34   |      102391      |     122299
       7  | 27:10.50 |    3:51.34   |      122300      |     139658
       8  | 31:02.09 |    4:47.42   |      139659      |     161225
       9  | 35:49.51 |    3:16.05   |      161226      |     175930
      10  | 39:05.56 |    3:24.61   |      175931      |     191291
Характеристики диапазона извлечения и сообщения об ошибках
Выбранный диапазон
C:\Documents and Settings\Admin\Рабочий стол\В.Ворон\В.Ворон-Жизнь блатная моя\Вячеслав Ворон - Жизнь блатная моя.wav
     Пиковый уровень 100.0 %
     Качество диапазона 100.0 %
     CRC копии B9BBEEA3
     Копирование... OK
Ошибок не произошло
AccurateRip: сводка
Трек  1  нет в базе данных
Трек  2  нет в базе данных
Трек  3  нет в базе данных
Трек  4  нет в базе данных
Трек  5  нет в базе данных
Трек  6  нет в базе данных
Трек  7  нет в базе данных
Трек  8  нет в базе данных
Трек  9  нет в базе данных
Трек 10  нет в базе данных
Ни одного трека нет в базе AccurateRip
Конец отчёта

Отчёт auCDtect Task manager&#58;

-----------------------
DON'T MODIFY THIS FILE
-----------------------
PERFORMER: auCDtect Task Manager, ver. 1.5.1RC6 build 1.5.1.7
Copyright (c) 2008-2010 y-soft. All rights reserved
http://y-soft.org
ANALYZER: auCDtect: CD records authenticity detector, version 0.8.2
Copyright (c) 2004 Oleg Berngardt. All rights reserved.
Copyright (c) 2004 Alexander Djourik. All rights reserved.
FILE: Вячеслав Ворон - Жизнь блатная моя.flac
  Size: 307337752 Hash: 5B913D7735F60474D35E410A7DE0FAD4 Accuracy: -m0
  Conclusion: CDDA 100%
  Signature: B5C9770B42FEFA02FBF39DEE6F143D7E1EDDC51D
-
Яндекс.Метрика
Рейтинг@Mail.ru