Андрей Алешкин и Владимир Соколовский - "Про папиросочку" и не только... (2014) [FLAC|Lossless]<Шансон>

 

Создавать темы 16-Дек-2014 20:20

-Андрей Алешкин и Владимир Соколовский - "Про папиросочку" и не только... (2014)- Год: 2014
Жанр: Шансон
Продолжительность: 00:42:44
Кодек: FLAC
Битрейт: Lossless
Тип рипа: image+.cue
Источник: vov4ik69
Треклист:
01. Кабаре
02. Воспоминания о прошлом
03. Дороги
04. Цыганская бричка
05. Дело в шляпе
06. Прогулка по ночному городу
07. Ностальгия
08. Журавли
09. Скрип тормозов
10. Про папиросочку (New version 2014)
+ БОНУСЫ:
11. Цыганская бричка (караоке)
12. Журавли (караоке)

Дополнительная информация&#58;

Состав:
Вокал, музыка и слова: 1,3,5,9,10 – Андрей Алешкин
2,4,6,7,8 – Владимир Соколовский
1. Виталий Куликовский (1,4,5,6,8-10), Армен Хуршудян, Федор Пятенко (2,7) - аранжировка, мастеринг
2. Виталий Куликовский – гитара, бас-гитара (1,4-10)
3. Дмитрий Еремин – клавишные (1, 5, 10)
4. Елена Слай – скрипка (4)
5. Ирина Митрофанова – бек-вокал (10), скрипка (7)
6. Елизавета Носенко – бек-вокал (10)
7. Наци Пап – аккордеон (6)
8. Виталий Куликовский – сведение
Запись произведена на студии «Сверху видно все» (Украина, г. Кировоград, директор Щербатый О.)

Cодержание индексной карты

REM GENRE Chanson
REM DATE 2014
REM DISCID 9D0A040C
REM COMMENT "ExactAudioCopy v1.0b3"
PERFORMER "Андрей Алёшкин и Владимир Соколовский"
TITLE "«Про папиросочку» и не только…"
FILE "Андрей Алёшкин и Владимир Соколовский - «Про папиросочку» и не только….flac" WAVE
  TRACK 01 AUDIO
    TITLE "Кабаре"
    PERFORMER "Андрей Алёшкин"
    INDEX 01 00:00:00
  TRACK 02 AUDIO
    TITLE "Воспоминания о прошлом"
    PERFORMER "Владимир Соколовский"
    INDEX 01 03:03:35
  TRACK 03 AUDIO
    TITLE "Дороги"
    PERFORMER "Андрей Алёшкин"
    INDEX 01 06:38:38
  TRACK 04 AUDIO
    TITLE "Цыганская бричка"
    PERFORMER "Владимир Соколовский"
    INDEX 01 09:39:03
  TRACK 05 AUDIO
    TITLE "Дело в шляпе"
    PERFORMER "Андрей Алёшкин"
    INDEX 01 14:17:05
  TRACK 06 AUDIO
    TITLE "Прогулка по ночному городу"
    PERFORMER "Владимир Соколовский"
    INDEX 01 16:30:44
  TRACK 07 AUDIO
    TITLE "Ностальгия"
    PERFORMER "Владимир Соколовский"
    INDEX 01 19:33:68
  TRACK 08 AUDIO
    TITLE "Журавли"
    PERFORMER "Владимир Соколовский"
    INDEX 01 22:51:26
  TRACK 09 AUDIO
    TITLE "Скрип тормозов"
    PERFORMER "Андрей Алёшкин"
    INDEX 01 27:04:49
  TRACK 10 AUDIO
    TITLE "Про папиросочку (New version 2014)"
    PERFORMER "Андрей Алёшкин"
    INDEX 01 30:22:14
  TRACK 11 AUDIO
    TITLE "Цыганская бричка (караоке)"
    PERFORMER "Андрей Алёшкин и Владимир Соколовский"
    INDEX 01 33:55:30
  TRACK 12 AUDIO
    TITLE "Журавли (караоке)"
    PERFORMER "Андрей Алёшкин и Владимир Соколовский"
    INDEX 01 38:33:32

Отчёт ЕАС&#58;

Exact Audio Copy V1.0 beta 3 from 29. August 2011
Отчёт EAC об извлечении, выполненном 7. марта 2014, 15:19
Андрей Алёшкин и Владимир Соколовский / «Про папиросочку» и не только…
Дисковод: HL-DT-STDVDRAM GH24NS95   Adapter: 3  ID: 0
Режим чтения                 : Достоверность
Использование точного потока : Да
Отключение кэша аудио        : Да
Использование указателей C2  : Нет
Коррекция смещения при чтении                     : 6
Способность читать области Lead-in и Lead-out     : Нет
Заполнение пропущенных сэмплов тишиной            : Да
Удаление блоков с тишиной в начале и конце        : Нет
При вычислениях CRC использовались нулевые сэмплы : Да
Интерфейс                                         : Установленный внешний ASPI-интерфейс
Выходной формат          : Пользовательский кодировщик
Выбранный битрейт        : 128 kBit/s
Качество                 : Высокий
Добавление ID3-тега      : Нет
Утилита сжатия           : C:\Program Files\FLAC\flac.exe
Дополнительные параметры : -V -8 -T "Date=%year%" -T "Genre=%genre%" %source%
TOC извлечённого CD
     Трек |   Старт  | Длительность | Начальный сектор | Конечный сектор
    ---------------------------------------------------------------------
       1  |  0:00.00 |    3:03.35   |           0      |      13759
       2  |  3:03.35 |    3:35.03   |       13760      |      29887
       3  |  6:38.38 |    3:00.40   |       29888      |      43427
       4  |  9:39.03 |    4:38.02   |       43428      |      64279
       5  | 14:17.05 |    2:13.39   |       64280      |      74293
       6  | 16:30.44 |    3:03.24   |       74294      |      88042
       7  | 19:33.68 |    3:17.33   |       88043      |     102850
       8  | 22:51.26 |    4:13.23   |      102851      |     121848
       9  | 27:04.49 |    3:17.40   |      121849      |     136663
      10  | 30:22.14 |    3:33.16   |      136664      |     152654
      11  | 33:55.30 |    4:38.02   |      152655      |     173506
      12  | 38:33.32 |    4:11.23   |      173507      |     192354
Характеристики диапазона извлечения и сообщения об ошибках
Выбранный диапазон
     Имя файла M:\2014 - Андрей Алёшкин и Владимир Соколовский - «Про папиросочку» и не только…\Андрей Алёшкин и Владимир Соколовский - «Про папиросочку» и не только….wav
     Пиковый уровень 100.0 %
     Скорость извлечения 7.5 X
     Качество диапазона 100.0 %
     CRC теста 17F71F57
     CRC копии 17F71F57
     Копирование... OK
Ошибок не произошло
Конец отчёта
==== Контрольная сумма отчёта B2107EF6162D59C8D7FD0D8B3FC223157D4CF09722B06991E4ADC77CC9DF6438 ====

Отчёт auCDtect Task manager&#58;

-----------------------
DON'T MODIFY THIS FILE
-----------------------
PERFORMER: auCDtect Task Manager, ver. 1.5.1RC2 build 1.5.1.3
Copyright (c) 2008-2010 y-soft. All rights reserved
http://y-soft.org
ANALYZER: auCDtect: CD records authenticity detector, version 0.8.2
Copyright (c) 2004 Oleg Berngardt. All rights reserved.
Copyright (c) 2004 Alexander Djourik. All rights reserved.
FILE: Андрей Алёшкин и Владимир Соколовский - «Про папиросочку» и не только….flac
  Size: 326248642 Hash: DF99E6F0B010AE5ECF2211875E23426E Accuracy: -m0
  Conclusion: CDDA 100%
  Signature: 85C2002BF98C1A299E4DDBD968470DD7CAABFA74
-
Яндекс.Метрика
Рейтинг@Mail.ru