Мартыныч - Вы слыхали, как поют бомжи? (1998) [FLAC|Lossless]<Шансон>

 

Создавать темы 16-Дек-2014 20:20

-Мартыныч - Вы слыхали, как поют бомжи? (1998)- Год: 1998
Страна-производитель диска: Россия
Издатель (лейбл): Зодиак
Номер по каталогу: CD ZO 008-98
Жанр: Шансон
Продолжительность: 00:48:36
Кодек: FLAC
Битрейт: Lossless
Тип рипа: image+.cue
Треклист:
01. Шестёрочки (4:13)
02. Не пропадай (3:35)
03. Москва (3:21)
04. Недвижимость (3:40)
05. Помоечка (3:12)
06. Маруся (2:43)
07. Совочек (3:07)
08. Лорд (4:04)
09. Не дураки (3:19)
10. Групповуха (4:43)
11. Сачёк (3:44)
12. Левша (2:42)
13. Копеечка (3:25)
14. Блоха (2:49)

Отчёт ЕАС&#58;

Exact Audio Copy V0.99 prebeta 5 from 4. May 2009
Отчёт EAC об извлечении, выполненном 12. апреля 2014, 12:35
Мартыныч / Вы слыхали, как поют бомжи?
Дисковод: _NEC    DVD_RW ND-3500AG   Adapter: 3  ID: 0
Режим чтения                 : Достоверность
Использование точного потока : Да
Отключение кэша аудио        : Да
Использование указателей C2  : Нет
Коррекция смещения при чтении                     : 48
Способность читать области Lead-in и Lead-out     : Нет
Заполнение пропущенных сэмплов тишиной            : Да
Удаление блоков с тишиной в начале и конце        : Нет
При вычислениях CRC использовались нулевые сэмплы : Да
Интерфейс                                         : Установленный внешний ASPI-интерфейс
Выходной формат : Внутренние WAV-операции
Формат сэмплов  : 44.100 Гц; 16 бит; стерео
TOC извлечённого CD
     Трек |   Старт  | Длительность | Начальный сектор | Конечный сектор
    ---------------------------------------------------------------------
       1  |  0:00.00 |    4:12.45   |           0      |      18944
       2  |  4:12.45 |    3:34.67   |       18945      |      35061
       3  |  7:47.37 |    3:20.49   |       35062      |      50110
       4  | 11:08.11 |    3:39.60   |       50111      |      66595
       5  | 14:47.71 |    3:11.59   |       66596      |      80979
       6  | 17:59.55 |    2:43.18   |       80980      |      93222
       7  | 20:42.73 |    3:07.11   |       93223      |     107258
       8  | 23:50.09 |    4:03.68   |      107259      |     125551
       9  | 27:54.02 |    3:19.34   |      125552      |     140510
      10  | 31:13.36 |    4:42.74   |      140511      |     161734
      11  | 35:56.35 |    3:43.69   |      161735      |     178528
      12  | 39:40.29 |    2:41.61   |      178529      |     190664
      13  | 42:22.15 |    3:24.54   |      190665      |     206018
      14  | 45:46.69 |    2:49.27   |      206019      |     218720
Характеристики диапазона извлечения и сообщения об ошибках
Выбранный диапазон
     Имя файла \Мартыныч\Мартыныч-Вы слыхали, как поют бомжи\Мартыныч - Вы слыхали, как поют бомжи.wav
     Пиковый уровень 99.4 %
     Качество диапазона 99.9 %
     CRC копии F5BBA52C
     Копирование... OK
Ошибок не произошло
AccurateRip: сводка
Трек  1  нет в базе данных
Трек  2  нет в базе данных
Трек  3  нет в базе данных
Трек  4  нет в базе данных
Трек  5  нет в базе данных
Трек  6  нет в базе данных
Трек  7  нет в базе данных
Трек  8  нет в базе данных
Трек  9  нет в базе данных
Трек 10  нет в базе данных
Трек 11  нет в базе данных
Трек 12  нет в базе данных
Трек 13  нет в базе данных
Трек 14  нет в базе данных
Ни одного трека нет в базе AccurateRip
Конец отчёта

Отчёт auCDtect Task manager&#58;

-----------------------
DON'T MODIFY THIS FILE
-----------------------
PERFORMER: auCDtect Task Manager, ver. 1.5.1RC6 build 1.5.1.7
Copyright (c) 2008-2010 y-soft. All rights reserved
http://y-soft.org
ANALYZER: auCDtect: CD records authenticity detector, version 0.8.2
Copyright (c) 2004 Oleg Berngardt. All rights reserved.
Copyright (c) 2004 Alexander Djourik. All rights reserved.
FILE: Мартыныч - Вы слыхали, как поют бомжи.flac
  Size: 351105855 Hash: C901D501A486381BA61ACC4B40545444 Accuracy: -m0
  Conclusion: CDDA 100%
  Signature: 58C1895332DAFC27B3B162D9BDEE39F089452F64
-
Яндекс.Метрика
Рейтинг@Mail.ru