Сергей Палычъ - Первый... (2012) [FLAC|Lossless]<Шансон>

 

Создавать темы 16-Дек-2014 20:20

-Сергей Палычъ - Первый... (2012)- Год: 2012
Страна-производитель диска: Россия
Издатель (лейбл): Ночное такси
Жанр: Шансон
Продолжительность: 01:03:42
Кодек: FLAC
Битрейт: Lossless
Тип рипа: image+.cue
Треклист:
01. Вступление - А.Фрумин (0:13)
02. Мадам (4:12)
03. На Руси (4:33)
04. Ванька (3:21)
05. Ростовская братва (3:00)
06. Белая тайга (5:41)
07. Завтра (4:06)
08. Коронованный (4:36)
09. Братва на воле (3:24)
10. Родная (3:34)
11. Здравствуйте! (6:34)
12. Гоп-стоп (3:16)
13. Врата (4:02)
14. Челябинск (4:09)
15. Питер (5:42)
16. Россия (3:20)

Отчёт ЕАС&#58;

Exact Audio Copy V1.0 beta 3 from 29. August 2011
Отчёт EAC об извлечении, выполненном 19. апреля 2014, 14:10
Сергей Палычъ / Первый...
Дисковод: ASUS    DRW-1814BLT   Adapter: 2  ID: 0
Режим чтения                 : Достоверность
Использование точного потока : Да
Отключение кэша аудио        : Да
Использование указателей C2  : Нет
Коррекция смещения при чтении                     : 6
Способность читать области Lead-in и Lead-out     : Нет
Заполнение пропущенных сэмплов тишиной            : Да
Удаление блоков с тишиной в начале и конце        : Нет
При вычислениях CRC использовались нулевые сэмплы : Да
Интерфейс                                         : Встроенный Win32-интерфейс для Win NT/2000
Выходной формат : Внутренние WAV-операции
Формат сэмплов  : 44.100 Гц; 16 бит; стерео
TOC извлечённого CD
     Трек |   Старт  | Длительность | Начальный сектор | Конечный сектор
    ---------------------------------------------------------------------
       1  |  0:00.00 |    0:13.32   |           0      |       1006
       2  |  0:13.32 |    4:12.04   |        1007      |      19910
       3  |  4:25.36 |    4:32.42   |       19911      |      40352
       4  |  8:58.03 |    3:20.42   |       40353      |      55394
       5  | 12:18.45 |    2:59.58   |       55395      |      68877
       6  | 15:18.28 |    5:40.67   |       68878      |      94444
       7  | 20:59.20 |    4:06.13   |       94445      |     112907
       8  | 25:05.33 |    4:36.10   |      112908      |     133617
       9  | 29:41.43 |    3:23.64   |      133618      |     148906
      10  | 33:05.32 |    3:33.50   |      148907      |     164931
      11  | 36:39.07 |    6:33.44   |      164932      |     194450
      12  | 43:12.51 |    3:16.34   |      194451      |     209184
      13  | 46:29.10 |    4:01.54   |      209185      |     227313
      14  | 50:30.64 |    4:08.60   |      227314      |     245973
      15  | 54:39.49 |    5:42.22   |      245974      |     271645
      16  | 60:21.71 |    3:20.13   |      271646      |     286658
Характеристики диапазона извлечения и сообщения об ошибках
Выбранный диапазон
     Имя файла \Палычъ Сергей\Сергей Палычъ - Первый....wav
     Пиковый уровень 98.9 %
     Скорость извлечения 9.5 X
     Качество диапазона 100.0 %
     CRC теста ECBA49FF
     CRC копии ECBA49FF
     Копирование... OK
Ошибок не произошло
AccurateRip: сводка
Трек  1  отсутствует в базе данных
Трек  2  отсутствует в базе данных
Трек  3  отсутствует в базе данных
Трек  4  отсутствует в базе данных
Трек  5  отсутствует в базе данных
Трек  6  отсутствует в базе данных
Трек  7  отсутствует в базе данных
Трек  8  отсутствует в базе данных
Трек  9  отсутствует в базе данных
Трек 10  отсутствует в базе данных
Трек 11  отсутствует в базе данных
Трек 12  отсутствует в базе данных
Трек 13  отсутствует в базе данных
Трек 14  отсутствует в базе данных
Трек 15  отсутствует в базе данных
Трек 16  отсутствует в базе данных
Ни одного трека нет в базе AccurateRip
Конец отчёта
==== Контрольная сумма отчёта B0A9F3668C5C419F46C0C5C7C8560D6C97B5A66618296205BF3EE1C05F55C6A0 ====

Отчёт auCDtect Task manager&#58;

-----------------------
DON'T MODIFY THIS FILE
-----------------------
PERFORMER: auCDtect Task Manager, ver. 1.5.1RC6 build 1.5.1.7
Copyright (c) 2008-2010 y-soft. All rights reserved
http://y-soft.org
ANALYZER: auCDtect: CD records authenticity detector, version 0.8.2
Copyright (c) 2004 Oleg Berngardt. All rights reserved.
Copyright (c) 2004 Alexander Djourik. All rights reserved.
FILE: Сергей Палычъ - Первый....flac
  Size: 479762663 Hash: B4C0A77AF02AFDEF1B70385ECC34133B Accuracy: -m0
  Conclusion: CDDA 100%
  Signature: CC566835241D48B48F6B6A692C3BC35DB57C642F
-
Яндекс.Метрика
Рейтинг@Mail.ru