[ Сегодня на трекере фрилич! Идет свободное скачивание без начисления Download ]

Вячеслав Ворон - Забери меня мать (1998) [FLAC|Lossless]<Шансон>

 

Создавать темы 16-Дек-2014 20:20

-Вячеслав Ворон - Забери меня мать (1998)- Год: 1998
Жанр: Шансон
Страна-производитель диска: Россия
Издатель (лейбл): Master Sound
Номер по каталогу: MS CD 194/98
Продолжительность: 00:43:05
Кодек: FLAC
Битрейт: Lossless
Тип рипа: image+.cue
Треклист:
01. Эх, водочка (3:42)
02. Снегири (3:29)
03. Воровская (3:27)
04. Ништяк, браток (3:12)
05. Ах, годы молодые (3:11)
06. Роковая любовь (3:32)
07. Друзьям (3:29)
08. Мариуполь (3:51)
09. Мой старый дом (4:46)
10. Забери меня, мать (3:51)
11. Электрочеловек (3:18)
12. Эх, Серёга, друг (3:17)

Отчёт ЕАС&#58;

Exact Audio Copy V0.99 prebeta 5 from 4. May 2009
Отчёт EAC об извлечении, выполненном 7. апреля 2014, 21:09
Вячеслав Ворон / Забенри меня мать
Дисковод: _NEC    DVD_RW ND-3500AG   Adapter: 3  ID: 0
Режим чтения                 : Достоверность
Использование точного потока : Да
Отключение кэша аудио        : Да
Использование указателей C2  : Нет
Коррекция смещения при чтении                     : 48
Способность читать области Lead-in и Lead-out     : Нет
Заполнение пропущенных сэмплов тишиной            : Да
Удаление блоков с тишиной в начале и конце        : Нет
При вычислениях CRC использовались нулевые сэмплы : Да
Интерфейс                                         : Установленный внешний ASPI-интерфейс
Выходной формат : Внутренние WAV-операции
Формат сэмплов  : 44.100 Гц; 16 бит; стерео
TOC извлечённого CD
     Трек |   Старт  | Длительность | Начальный сектор | Конечный сектор
    ---------------------------------------------------------------------
       1  |  0:00.55 |    3:41.72   |          55      |      16701
       2  |  3:42.52 |    3:28.48   |       16702      |      32349
       3  |  7:11.25 |    3:27.15   |       32350      |      47889
       4  | 10:38.40 |    3:11.42   |       47890      |      62256
       5  | 13:50.07 |    3:10.70   |       62257      |      76576
       6  | 17:01.02 |    3:32.30   |       76577      |      92506
       7  | 20:33.32 |    3:28.50   |       92507      |     108156
       8  | 24:02.07 |    3:50.65   |      108157      |     125471
       9  | 27:52.72 |    4:46.28   |      125472      |     146949
      10  | 32:39.25 |    3:51.27   |      146950      |     164301
      11  | 36:30.52 |    3:17.40   |      164302      |     179116
      12  | 39:48.17 |    3:17.23   |      179117      |     193914
Характеристики диапазона извлечения и сообщения об ошибках
Выбранный диапазон
     Имя файла \В.Ворон\Забери меня мать\Вячеслав Ворон - Забенри меня мать.wav
     Пиковый уровень 100.0 %
     Качество диапазона 99.9 %
     CRC копии 06BF74C7
     Копирование... OK
Ошибок не произошло
AccurateRip: сводка
Трек  1  нет в базе данных
Трек  2  нет в базе данных
Трек  3  нет в базе данных
Трек  4  нет в базе данных
Трек  5  нет в базе данных
Трек  6  нет в базе данных
Трек  7  нет в базе данных
Трек  8  нет в базе данных
Трек  9  нет в базе данных
Трек 10  нет в базе данных
Трек 11  нет в базе данных
Трек 12  нет в базе данных
Ни одного трека нет в базе AccurateRip
Конец отчёта

Отчёт auCDtect Task manager&#58;

-----------------------
DON'T MODIFY THIS FILE
-----------------------
PERFORMER: auCDtect Task Manager, ver. 1.5.1RC6 build 1.5.1.7
Copyright (c) 2008-2010 y-soft. All rights reserved
http://y-soft.org
ANALYZER: auCDtect: CD records authenticity detector, version 0.8.2
Copyright (c) 2004 Oleg Berngardt. All rights reserved.
Copyright (c) 2004 Alexander Djourik. All rights reserved.
FILE: Вячеслав Ворон - Забери меня мать.flac
  Size: 333010695 Hash: 2B9301234AE4CE17CF2C8F577FCB5D1A Accuracy: -m0
  Conclusion: CDDA 100%
  Signature: D4BE4758B44ADD96A6F1917F7FBB27E504051D56
-
Яндекс.Метрика
Рейтинг@Mail.ru