[ Сегодня на трекере фрилич! Идет свободное скачивание без начисления Download ]

Вячеслав Ворон - Красные трамвайчики (1998) [FLAC|Lossless]<Шансон>

 

Создавать темы 16-Дек-2014 20:20

-Вячеслав Ворон - Красные трамвайчики (1998)- Год: 1998
Жанр: Шансон
Страна-производитель диска: Россия
Издатель (лейбл):Master Sound
Номер по каталогу: MS CD 195/98
Продолжительность: 00:38:53
Кодек: FLAC
Битрейт: Lossless
Тип рипа: image+.cue
Треклист:
01. Анка-хулиганка (3:53)
02. Красные трамвайчики (3:30)
03. Прощай (4:23)
04. Вася (2:50)
05. Да, что Одесса (3:03)
06. Эмигрантская (3:58)
07. Судьба такая (3:23)
08. На волю (3:13)
09. Колыбельная для дочки (4:01)
10. Эшелон (3:49)
11. Бом-Бом (2:48)

Отчёт ЕАС&#58;

Exact Audio Copy V0.99 prebeta 5 from 4. May 2009
Отчёт EAC об извлечении, выполненном 7. апреля 2014, 12:30
Вячеслав Ворон / Красные трамвайчики
Дисковод: _NEC    DVD_RW ND-3500AG   Adapter: 3  ID: 0
Режим чтения                 : Достоверность
Использование точного потока : Да
Отключение кэша аудио        : Да
Использование указателей C2  : Нет
Коррекция смещения при чтении                     : 48
Способность читать области Lead-in и Lead-out     : Нет
Заполнение пропущенных сэмплов тишиной            : Да
Удаление блоков с тишиной в начале и конце        : Нет
При вычислениях CRC использовались нулевые сэмплы : Да
Интерфейс                                         : Установленный внешний ASPI-интерфейс
Выходной формат : Внутренние WAV-операции
Формат сэмплов  : 44.100 Гц; 16 бит; стерео
TOC извлечённого CD
     Трек |   Старт  | Длительность | Начальный сектор | Конечный сектор
    ---------------------------------------------------------------------
       1  |  0:00.55 |    3:52.47   |          55      |      17501
       2  |  3:53.27 |    3:29.68   |       17502      |      33244
       3  |  7:23.20 |    4:23.30   |       33245      |      52999
       4  | 11:46.50 |    2:50.25   |       53000      |      65774
       5  | 14:37.00 |    3:02.60   |       65775      |      79484
       6  | 17:39.60 |    3:58.27   |       79485      |      97361
       7  | 21:38.12 |    3:23.08   |       97362      |     112594
       8  | 25:01.20 |    3:12.60   |      112595      |     127054
       9  | 28:14.05 |    4:01.35   |      127055      |     145164
      10  | 32:15.40 |    3:49.30   |      145165      |     162369
      11  | 36:04.70 |    2:48.15   |      162370      |     174984
Характеристики диапазона извлечения и сообщения об ошибках
Выбранный диапазон
     Имя файла \В.Ворон\Красные трамвайчики\сканы\Вячеслав Ворон - Красные трамвайчики.wav
     Пиковый уровень 99.9 %
     Качество диапазона 99.9 %
     CRC копии B7B81A46
     Копирование... OK
Ошибок не произошло
AccurateRip: сводка
Трек  1  нет в базе данных
Трек  2  нет в базе данных
Трек  3  нет в базе данных
Трек  4  нет в базе данных
Трек  5  нет в базе данных
Трек  6  нет в базе данных
Трек  7  нет в базе данных
Трек  8  нет в базе данных
Трек  9  нет в базе данных
Трек 10  нет в базе данных
Трек 11  нет в базе данных
Ни одного трека нет в базе AccurateRip
Конец отчёта

Отчёт auCDtect Task manager&#58;

-----------------------
DON'T MODIFY THIS FILE
-----------------------
PERFORMER: auCDtect Task Manager, ver. 1.5.1RC6 build 1.5.1.7
Copyright (c) 2008-2010 y-soft. All rights reserved
http://y-soft.org
ANALYZER: auCDtect: CD records authenticity detector, version 0.8.2
Copyright (c) 2004 Oleg Berngardt. All rights reserved.
Copyright (c) 2004 Alexander Djourik. All rights reserved.
FILE: Вячеслав Ворон - Красные трамвайчики.flac
  Size: 297231816 Hash: D5EB940A8897E4C5DD8193E494C75A8C Accuracy: -m0
  Conclusion: CDDA 100%
  Signature: DD516AC67AD19B0C0BBFEE2E595E4830CC0FC23C
-
Яндекс.Метрика
Рейтинг@Mail.ru