Михаил Гулько - Платиновый альбом (2011) [FLAC|Lossless]<Шансон>

 

Создавать темы 16-Дек-2014 20:20

-Михаил Гулько - Платиновый альбом (2011)- Жанр: Шансон
Страна-производитель диска: Россия
Год издания: 2011
Издатель (лейбл): MASTER SOUND
Номер по каталогу: MS CD 854/11
Продолжительность: 01:05:44
Кодек: FLAC
Битрейт: Lossless
Тип рипа: image+.cue
Наличие сканов в содержимом раздачи: да
Трек лист:
1. Почему ты замужем (03:58)
2. На материк (03:05)
3. Журавли (04:12)
4. Тишина (03:49)
5. Последняя осень (03:41)
6. Столыпин (04:03)
7. Окурочек (03:54)
8. Анечка (03:30)
9. В Америке (02:38)
10. По тундре (04:58)
11. Берёзы в кадках (02:22)
12. Этапы (03:56)
13. Мужики (при участии П.Железо) (04:39)
14. Постой паровоз (02:59)

Продолжения трек листа&#58;


15. В память о друге (03:12)
16. Берёзы (03:43)
17. Красная масть (03:04)
18. Российская бутылка (03:54)

Отчёт ЕАС&#58;

Exact Audio Copy V1.0 beta 1 from 15. November 2010
Отчёт EAC об извлечении, выполненном 3. октября 2011, 20:52
Михаил Гулько / Платиновый альбом
Дисковод: Optiarc DVD RW AD-7260S   Adapter: 1  ID: 0
Режим чтения                 : Достоверность
Использование точного потока : Да
Отключение кэша аудио        : Да
Использование указателей C2  : Нет
Коррекция смещения при чтении                     : 48
Способность читать области Lead-in и Lead-out     : Нет
Заполнение пропущенных сэмплов тишиной            : Да
Удаление блоков с тишиной в начале и конце        : Нет
При вычислениях CRC использовались нулевые сэмплы : Да
Интерфейс                                         : Встроенный Win32-интерфейс для Win NT/2000
Выходной формат : Внутренние WAV-операции
Формат сэмплов  : 44.100 Гц; 16 бит; стерео
TOC извлечённого CD
     Трек |   Старт  | Длительность | Начальный сектор | Конечный сектор
    ---------------------------------------------------------------------
       1  |  0:00.00 |    3:58.44   |           0      |      17893
       2  |  3:58.44 |    3:05.11   |       17894      |      31779
       3  |  7:03.55 |    4:12.67   |       31780      |      50746
       4  | 11:16.47 |    3:49.05   |       50747      |      67926
       5  | 15:05.52 |    3:41.13   |       67927      |      84514
       6  | 18:46.65 |    4:03.12   |       84515      |     102751
       7  | 22:50.02 |    3:54.42   |      102752      |     120343
       8  | 26:44.44 |    3:30.42   |      120344      |     136135
       9  | 30:15.11 |    2:38.65   |      136136      |     148050
      10  | 32:54.01 |    4:58.42   |      148051      |     170442
      11  | 37:52.43 |    2:22.08   |      170443      |     181100
      12  | 40:14.51 |    3:56.39   |      181101      |     198839
      13  | 44:11.15 |    4:39.11   |      198840      |     219775
      14  | 48:50.26 |    2:59.74   |      219776      |     233274
      15  | 51:50.25 |    3:12.24   |      233275      |     247698
      16  | 55:02.49 |    3:43.06   |      247699      |     264429
      17  | 58:45.55 |    3:04.23   |      264430      |     278252
      18  | 61:50.03 |    3:54.60   |      278253      |     295862
Характеристики диапазона извлечения и сообщения об ошибках
Выбранный диапазон
     Имя файла C:\Users\Анатолий\Desktop\Музыка\М.Гулько-Платиновый альбом\Михаил Гулько - Платиновый альбом.wav
     Пиковый уровень 97.7 %
0.2 X
     Качество диапазона 100.0 %
     CRC теста DCC3DF7D
     CRC копии DCC3DF7D
     Копирование... OK
Ошибок не произошло
AccurateRip: сводка
Трек  1  нет в базе данных
Трек  2  нет в базе данных
Трек  3  нет в базе данных
Трек  4  нет в базе данных
Трек  5  нет в базе данных
Трек  6  нет в базе данных
Трек  7  нет в базе данных
Трек  8  нет в базе данных
Трек  9  нет в базе данных
Трек 10  нет в базе данных
Трек 11  нет в базе данных
Трек 12  нет в базе данных
Трек 13  нет в базе данных
Трек 14  нет в базе данных
Трек 15  нет в базе данных
Трек 16  нет в базе данных
Трек 17  нет в базе данных
Трек 18  нет в базе данных
Ни одного трека нет в базе AccurateRip
Конец отчёта

Отчёт auCDtect Task manager&#58;

-----------------------
DON'T MODIFY THIS FILE
-----------------------
PERFORMER: auCDtect Task Manager, ver. 1.5.1RC6 build 1.5.1.7
Copyright (c) 2008-2010 y-soft. All rights reserved
http://y-soft.org
ANALYZER: auCDtect: CD records authenticity detector, version 0.8.2
Copyright (c) 2004 Oleg Berngardt. All rights reserved.
Copyright (c) 2004 Alexander Djourik. All rights reserved.
FILE: Михаил Гулько - Платиновый альбом.flac
  Size: 477263251 Hash: 575FC4AC5433C2CE6AAAD874CAEDC241 Accuracy: -m0
  Conclusion: CDDA 100%
  Signature: CAEC91D8467A830C183C03AF760901B2506B4B0F
-
Яндекс.Метрика
Рейтинг@Mail.ru