[ Сегодня на трекере фрилич! Идет свободное скачивание без начисления Download ]

Федя Карманов и Анатолий Полотно - Счастья Вам! (2014) [FLAC|Lossless]<Шансон>

 

Создавать темы 16-Дек-2014 20:20

-Федя Карманов и Анатолий Полотно - Счастья Вам! (2014)- Лейбл: United music group
Каталог: UMG CD 14-427
Год: 2014
Жанр: Шансон
Продолжительность: 00:56:06
Кодек: FLAC (image+.cue)
Битрейт: Lossless
Треклист:
01. В холодах
02. Романтика
03. Гимн природе
04. Рыбацкие байки
05. В город пришла весна
06. Скрипач
07. Жаворонок
08. У вечного огня
09. Олимпийский снегопад
10. Не грусти
11. Я мальчишка седой
12. Гитара с треснувшею декой
13. Чартер
14. Счастья Вам!

Отчёт ЕАС&#58;

Exact Audio Copy V1.0 beta 3 from 29. August 2011
Отчёт EAC об извлечении, выполненном 2. марта 2014, 10:55
Анатолий Полотно и Федя Карманов / Анатолий Счастья Вам!
Дисковод: Optiarc DVD RW AD-5280S   Adapter: 2  ID: 1
Режим чтения                 : Достоверность
Использование точного потока : Да
Отключение кэша аудио        : Да
Использование указателей C2  : Нет
Коррекция смещения при чтении                     : 48
Способность читать области Lead-in и Lead-out     : Нет
Заполнение пропущенных сэмплов тишиной            : Да
Удаление блоков с тишиной в начале и конце        : Нет
При вычислениях CRC использовались нулевые сэмплы : Да
Интерфейс                                         : Встроенный Win32-интерфейс для Win NT/2000
Выходной формат          : Пользовательский кодировщик
Выбранный битрейт        : 896 kBit/s
Качество                 : Высокий
Добавление ID3-тега      : Нет
Утилита сжатия           : C:\Program Files\EACPortable\App\EAC\FLAC\flac.exe
Дополнительные параметры : -6 -V -T "ARTIST=%artist%" -T "TITLE=%title%" -T "ALBUM=%albumtitle%" -T "DATE=%year%" -T "TRACKNUMBER=%tracknr%" -T "GENRE=%genre%" -T "COMMENT=%comment%" %hascover%--picture="%coverfile%"%hascover% %source% -o %dest%
TOC извлечённого CD
     Трек |   Старт  | Длительность | Начальный сектор | Конечный сектор
    ---------------------------------------------------------------------
       1  |  0:00.00 |    4:32.01   |           0      |      20400
       2  |  4:32.01 |    3:23.43   |       20401      |      35668
       3  |  7:55.44 |    2:52.71   |       35669      |      48639
       4  | 10:48.40 |    4:02.11   |       48640      |      66800
       5  | 14:50.51 |    4:12.25   |       66801      |      85725
       6  | 19:03.01 |    4:21.01   |       85726      |     105301
       7  | 23:24.02 |    2:54.03   |      105302      |     118354
       8  | 26:18.05 |    4:14.11   |      118355      |     137415
       9  | 30:32.16 |    3:30.35   |      137416      |     153200
      10  | 34:02.51 |    4:26.56   |      153201      |     173206
      11  | 38:29.32 |    3:10.27   |      173207      |     187483
      12  | 41:39.59 |    4:20.13   |      187484      |     206996
      13  | 45:59.72 |    6:10.35   |      206997      |     234781
      14  | 52:10.32 |    3:55.54   |      234782      |     252460
Характеристики диапазона извлечения и сообщения об ошибках
Выбранный диапазон
     Имя файла G:\Дискографии (Lossless)\Анатолий Полотно и Федя Карманов - Анатолий Счастья Вам!.wav
     Пиковый уровень 98.8 %
     Скорость извлечения 4.1 X
     Качество диапазона 99.9 %
     CRC теста 3976DB46
     CRC копии 3976DB46
     Копирование... OK
Ошибок не произошло
Конец отчёта

Отчёт auCDtect Task manager&#58;

-----------------------
DON'T MODIFY THIS FILE
-----------------------
PERFORMER: auCDtect Task Manager, ver. 1.5.1RC4 build 1.5.1.5
Copyright (c) 2008-2010 y-soft. All rights reserved
http://y-soft.org
ANALYZER: auCDtect: CD records authenticity detector, version 0.8.2
Copyright (c) 2004 Oleg Berngardt. All rights reserved.
Copyright (c) 2004 Alexander Djourik. All rights reserved.
FILE: Анатолий Полотно и Федя Карманов - Счастья Вам!.flac
  Size: 445533119 Hash: 9329847297C19FCF01FD4BBBA6140ACA Accuracy: -m0
  Conclusion: CDDA 100%
  Signature: 1D764DA0C16018CC84212EB6738FE62EB45FEC22

Содержимое индексной карты&#58;

REM GENRE Шансон
REM DATE 2014
REM DISCID A50D260E
REM COMMENT "ExactAudioCopy v1.0b3"
PERFORMER "Анатолий Полотно и Федя Карманов"
TITLE "Анатолий Счастья Вам!"
FILE "Анатолий Полотно и Федя Карманов - Счастья Вам!.flac" WAVE
  TRACK 01 AUDIO
    TITLE "В холодах"
    PERFORMER "Анатолий Полотно и Федя Карманов"
    INDEX 01 00:00:00
  TRACK 02 AUDIO
    TITLE "Романтика"
    PERFORMER "Анатолий Полотно и Федя Карманов"
    INDEX 01 04:32:01
  TRACK 03 AUDIO
    TITLE "Гимн природе"
    PERFORMER "Анатолий Полотно и Федя Карманов"
    INDEX 01 07:55:44
  TRACK 04 AUDIO
    TITLE "Рыбацкие байки"
    PERFORMER "Анатолий Полотно и Федя Карманов"
    INDEX 01 10:48:40
  TRACK 05 AUDIO
    TITLE "В город пришла весна"
    PERFORMER "Анатолий Полотно и Федя Карманов"
    INDEX 01 14:50:51
  TRACK 06 AUDIO
    TITLE "Скрипач"
    PERFORMER "Анатолий Полотно и Федя Карманов"
    INDEX 01 19:03:01
  TRACK 07 AUDIO
    TITLE "Жаворонок"
    PERFORMER "Анатолий Полотно и Федя Карманов"
    INDEX 01 23:24:02
  TRACK 08 AUDIO
    TITLE "У вечного огня"
    PERFORMER "Анатолий Полотно и Федя Карманов"
    INDEX 01 26:18:05
  TRACK 09 AUDIO
    TITLE "Олимпийский снегопад"
    PERFORMER "Анатолий Полотно и Федя Карманов"
    INDEX 01 30:32:16
  TRACK 10 AUDIO
    TITLE "Не грусти"
    PERFORMER "Анатолий Полотно и Федя Карманов"
    INDEX 01 34:02:51
  TRACK 11 AUDIO
    TITLE "Я мальчишка седой"
    PERFORMER "Анатолий Полотно и Федя Карманов"
    INDEX 01 38:29:32
  TRACK 12 AUDIO
    TITLE "Гитара с треснувшею декой"
    PERFORMER "Анатолий Полотно и Федя Карманов"
    INDEX 01 41:39:59
  TRACK 13 AUDIO
    TITLE "Чартер"
    PERFORMER "Анатолий Полотно и Федя Карманов"
    INDEX 01 45:59:72
  TRACK 14 AUDIO
    TITLE "Счастья Вам!"
    PERFORMER "Анатолий Полотно и Федя Карманов"
    INDEX 01 52:10:32
-
Яндекс.Метрика
Рейтинг@Mail.ru