Рождество - Светлый ангел (2011) [FLAC|Lossless]<Шансон>

 

Создавать темы 16-Дек-2014 20:20

-Рождество - Светлый ангел (2011)- Год: 2011
Страна-производитель диска: Россия
Издатель (лейбл): Студия Андрея Насырова
Жанр: Шансон
Продолжительность: 01:18:28
Кодек: FLAC
Битрейт: Lossless
Тип рипа: image+.cue
Треклист:
01. Карандаши (02:59)
02. Казачья песня (03:24)
03. Улетают птицы (05:02)
04. Светлый ангел (04:14)
05. Расходились-расставались (03:16)
06. Лето-лето (05:05)
07. Лейся, песня! (05:10)
08. Найти тебя (05:41)
09. На канале в Тушино (04:18)
10. Кто здесь? (04:00)
11. Новый год, Новый год! (04:30)
12. Каюсь (04:07)
Бонус:
13. Молодость (04:58)
14. Твои глаза (04:31)
15. Белая, белая (05:05)
16. Так хочется жить (04:08)
17. Зимний вечер (04:52)
18. Вот так! (03:00)

Дополнительная информация&#58;

… и вот я родился ! – наверное так бы крикнул новый диск группы «РОЖДЕСТВО», который ребята назвали «Светлый ангел». Да ! Он вышел в свет ! В 2011 году весной, а это уже традиция группы – именно по весне дарить своим слушателям новый диск! Так как весной, по мнению автора песен Селезнева Геннадия, все рождается, обновляется, ликует и поёт !!! Новый диск – это хорошее и более расширенное продолжение добрых песен группы « Рождество».
В этом альбоме участники группы, что называется, «искали новые музыкальные краски», они показали свое мастерство, играя в разных стилях, прибегли в некоторых песня к электронной обработке своих песен, немного прошлись по року и даже кое-где побаловались «попсой»! Но всё это изобилие новых красок только ещё более подчеркнуло мастерство коллектива, его манеру исполнения. Как говорят сами музыканты, следующий альбом будет писаться с учетом уже имеющегося опыта и с поиском новых музыкальных подач. Вот такая она, эта группа «Рождество». Каждый раз ребята пытаются найти что-то новое для себя, а заодно и порадовать нас, слушателей ! В этом альбоме аранжировщик группы Андрей Насыров опять проявил всю свою самобытность мастера по привлечению новых звуков и стилизации мелодий, которые сразу запоминаются и закрадываются в наши души надолго ! В новый диск, также как и в предыдущий, вошло двенадцать песен. Все песни, как и всегда, пропитаны любовью, надеждами, мечтами, желаньем дарить простое человеческое счастье своим близким и друзьям! Хочется сказать этой группе – «Мы рады что вы пришли!». Пришли с таким багажом всего нового и хорошо забытого старого, с простыми, и в тоже время, поучительными и доходчивыми для каждого сердца текстами и мелодиями! И так он родился ! Новый диск от группы «РОЖДЕСТВО» под названием «СВЕТЛЫЙ АНГЕЛ». Встречайте его, любите его и наслаждайтесь им !!!-Группа «Рождество»:
Геннадий Селезнёв - вокал
Андрей Насыров - бас-гитара
Виктор Бояринцев - гитара, саксофон
Дмитрий Алёхин - баян

Отчёт ЕАС&#58;

Exact Audio Copy V1.0 beta 1 from 15. November 2010
Отчёт EAC об извлечении, выполненном 14. февраля 2014, 14:39
гр.Рождество / Светлый ангел
Дисковод: Optiarc DVD RW AD-7173A   Adapter: 0  ID: 0
Режим чтения                 : Достоверность
Использование точного потока : Да
Отключение кэша аудио        : Да
Использование указателей C2  : Нет
Коррекция смещения при чтении                     : 48
Способность читать области Lead-in и Lead-out     : Нет
Заполнение пропущенных сэмплов тишиной            : Да
Удаление блоков с тишиной в начале и конце        : Нет
При вычислениях CRC использовались нулевые сэмплы : Да
Интерфейс                                         : Установленный внешний ASPI-интерфейс
Выходной формат : Внутренние WAV-операции
Формат сэмплов  : 44.100 Гц; 16 бит; стерео
TOC извлечённого CD
     Трек |   Старт  | Длительность | Начальный сектор | Конечный сектор
    ---------------------------------------------------------------------
       1  |  0:00.00 |    2:59.27   |           0      |      13451
       2  |  2:59.27 |    3:24.14   |       13452      |      28765
       3  |  6:23.41 |    5:02.72   |       28766      |      51487
       4  | 11:26.38 |    4:14.47   |       51488      |      70584
       5  | 15:41.10 |    3:16.50   |       70585      |      85334
       6  | 18:57.60 |    5:05.17   |       85335      |     108226
       7  | 24:03.02 |    5:10.58   |      108227      |     131534
       8  | 29:13.60 |    5:41.36   |      131535      |     157145
       9  | 34:55.21 |    4:18.73   |      157146      |     176568
      10  | 39:14.19 |    4:00.31   |      176569      |     194599
      11  | 43:14.50 |    4:30.48   |      194600      |     214897
      12  | 47:45.23 |    4:07.20   |      214898      |     233442
      13  | 51:52.43 |    4:58.53   |      233443      |     255845
      14  | 56:51.21 |    4:31.43   |      255846      |     276213
      15  | 61:22.64 |    5:05.04   |      276214      |     299092
      16  | 66:27.68 |    4:08.06   |      299093      |     317698
      17  | 70:35.74 |    4:52.21   |      317699      |     339619
      18  | 75:28.20 |    3:00.06   |      339620      |     353125
Характеристики диапазона извлечения и сообщения об ошибках
Выбранный диапазон
     Имя файла C:\Documents and Settings\Admin\Рабочий стол\гр.Рождество - Светлый ангел (2011г.)\гр.Рождество - Светлый ангел.wav
     Пиковый уровень 100.0 %
0.0 X
     Качество диапазона 99.9 %
     CRC теста E55B9E1F
     CRC копии E55B9E1F
     Копирование... OK
Ошибок не произошло
AccurateRip: сводка
Трек  1  нет в базе данных
Трек  2  нет в базе данных
Трек  3  нет в базе данных
Трек  4  нет в базе данных
Трек  5  нет в базе данных
Трек  6  нет в базе данных
Трек  7  нет в базе данных
Трек  8  нет в базе данных
Трек  9  нет в базе данных
Трек 10  нет в базе данных
Трек 11  нет в базе данных
Трек 12  нет в базе данных
Трек 13  нет в базе данных
Трек 14  нет в базе данных
Трек 15  нет в базе данных
Трек 16  нет в базе данных
Трек 17  нет в базе данных
Трек 18  нет в базе данных
Ни одного трека нет в базе AccurateRip
Конец отчёта

Отчёт auCDtect Task manager&#58;

-----------------------
DON'T MODIFY THIS FILE
-----------------------
PERFORMER: auCDtect Task Manager, ver. 1.5.1RC6 build 1.5.1.7
Copyright (c) 2008-2010 y-soft. All rights reserved
http://y-soft.org
ANALYZER: auCDtect: CD records authenticity detector, version 0.8.2
Copyright (c) 2004 Oleg Berngardt. All rights reserved.
Copyright (c) 2004 Alexander Djourik. All rights reserved.
FILE: гр.Рождество - Светлый ангел.flac
  Size: 631539614 Hash: 9945A2D8B05CF9845A457C923F15F319 Accuracy: -m0
  Conclusion: CDDA 99%
  Signature: 9116EA72A1B9841B1448AD55188EF225B2B9D399
-
Яндекс.Метрика
Рейтинг@Mail.ru