Алексей Брянцев - Спасибо, что ты есть (2014) [FLAC|Lossless]<Шансон>

 

Создавать темы 16-Дек-2014 20:20

-Алексей Брянцев - Спасибо, что ты есть (2014)- Год: 2014
Жанр: Шансон
Продолжительность: 00:37:03
Лейбл: ArturMusic
Каталог №: CD 568
Тип рипа: image+.cue
Сканы: Комплект
Кодек: FLAC
Битрейт: Lossless-Трек лист:-01. Без тебя (3:47)
02. Дай мне счастья взаймы (3:47)
03. Самая красивая невеста (3:39)
04. Никому не отдам (3:31)
05. Болею тобой (4:03)
06. Моя любовь (3:31)
07. Море любви (3:23)
08. Скажи (3:20)
09. Скучаю (3:58)
10. Спасибо, что ты есть (4:01)-

Отчёт EAC&#58;

Exact Audio Copy V1.0 beta 3 from 29. August 2011
Отчёт EAC об извлечении, выполненном 21. сентября 2014, 9:31
Алексей Брянцев /  Спасибо, что ты есть
Дисковод: TSSTcorpCDDVDW TS-L633J   Adapter: 0  ID: 1
Режим чтения                 : Достоверность
Использование точного потока : Да
Отключение кэша аудио        : Да
Использование указателей C2  : Нет
Коррекция смещения при чтении                     : 6
Способность читать области Lead-in и Lead-out     : Нет
Заполнение пропущенных сэмплов тишиной            : Да
Удаление блоков с тишиной в начале и конце        : Нет
При вычислениях CRC использовались нулевые сэмплы : Да
Интерфейс                                         : Встроенный Win32-интерфейс для Win NT/2000
Выходной формат          : Пользовательский кодировщик
Выбранный битрейт        : 1024 kBit/s
Качество                 : Высокий
Добавление ID3-тега      : Нет
Утилита сжатия           : C:\Program Files (x86)\Exact Audio Copy\FLAC\FLAC.EXE
Дополнительные параметры : -8 -V -T "ARTIST=%artist%" -T "TITLE=%title%" -T "ALBUM=%albumtitle%" -T "DATE=%year%" -T "TRACKNUMBER=%tracknr%" -T "GENRE=%genre%" -T "COMMENT=%comment%" -T "BAND=%albuminterpret%" -T "ALBUMARTIST=%albuminterpret%" -T "COMPOSER=%composer%" %haslyrics%--tag-from-file=LYRICS="%lyricsfile%"%haslyrics% -T "DISCNUMBER=%cdnumber%" -T "TOTALDISCS=%totalcds%" -T "TOTALTRACKS=%numtracks%" %hascover%--picture="%coverfile%"%hascover% %source% -o %dest%
TOC извлечённого CD
     Трек |   Старт  | Длительность | Начальный сектор | Конечный сектор
    ---------------------------------------------------------------------
       1  |  0:00.00 |    3:47.61   |           0      |      17085
       2  |  3:47.61 |    3:47.02   |       17086      |      34112
       3  |  7:34.63 |    3:39.38   |       34113      |      50575
       4  | 11:14.26 |    3:31.46   |       50576      |      66446
       5  | 14:45.72 |    4:03.03   |       66447      |      84674
       6  | 18:49.00 |    3:31.05   |       84675      |     100504
       7  | 22:20.05 |    3:22.71   |      100505      |     115725
       8  | 25:43.01 |    3:20.38   |      115726      |     130763
       9  | 29:03.39 |    3:58.25   |      130764      |     148638
      10  | 33:01.64 |    4:01.38   |      148639      |     166751
      11  | 39:35.27 |   21:00.71   |      178152      |     272722
Характеристики диапазона извлечения и сообщения об ошибках
Выбранный диапазон
     Имя файла D:\Download\Брянцев Алексей -  Спасибо, что ты есть - 2014(flac)\Алексей Брянцев -  Спасибо, что ты есть.wav
     Пиковый уровень 100.0 %
     Скорость извлечения 2.6 X
     Качество диапазона 100.0 %
     CRC теста 1FF0F91C
     CRC копии 1FF0F91C
     Копирование... OK
Ошибок не произошло
AccurateRip: сводка
Трек  1  отсутствует в базе данных
Трек  2  отсутствует в базе данных
Трек  3  отсутствует в базе данных
Трек  4  отсутствует в базе данных
Трек  5  отсутствует в базе данных
Трек  6  отсутствует в базе данных
Трек  7  отсутствует в базе данных
Трек  8  отсутствует в базе данных
Трек  9  отсутствует в базе данных
Трек 10  отсутствует в базе данных
Ни одного трека нет в базе AccurateRip
Конец отчёта
==== Контрольная сумма отчёта E94F349EA3C4FAB290042F4B617832ACDB091B78F16A0AB2F6BC83FA1E39E2FC ====

Отчёт auCDtect Task manager&#58;

-----------------------
DON'T MODIFY THIS FILE
-----------------------
PERFORMER: auCDtect Task Manager, ver. 1.6.0 RC1 build 1.6.0.1
Copyright (c) 2008-2010 y-soft. All rights reserved
http://y-soft.org
ANALYZER: auCDtect: CD records authenticity detector, version 0.8.2
Copyright (c) 2004 Oleg Berngardt. All rights reserved.
Copyright (c) 2004 Alexander Djourik. All rights reserved.
FILE: Алексей Брянцев -  Спасибо, что ты есть.flac
  Size: 288046600 Hash: CBAEA1EB3B7F1133E32B1F6CCA32F2EC Accuracy: -m0
  Conclusion: CDDA 99%
  Signature: 55A7690FF7F3BC3DE7CB971E383C82355FC7DC69
-
Яндекс.Метрика
Рейтинг@Mail.ru