Бутырка - Вернусь домой (2014) [FLAC (image+.cue)|Lossless]<Шансон>

 

Создавать темы 16-Дек-2014 20:20

-Бутырка - Вернусь домой (2014)- Год: 2014
Носитель: CD
Страна-производитель диска: Россия
Издатель (лейбл): Master Sound & Русский Шансон
Жанр: Шансон
Продолжительность: 00:40:24
Кодек: FLAC
Битрейт: Lossless
Тип рипа: image+.cue
Источник (релизер): defyz86
Наличие сканов в содержимом раздачи: да--Треклист:
01. Вернусь домой (4:10)
02. Дарья (4:02)
03. Что же это было (3:54)
04. Качнем вагон (3:32)
05. Воздух весны (4:51)
06. Ни пенсии, ни хаты (4:40)
07. Перекресток (3:44)
08. И полетят рубли (3:45)
09. Женщина (3:06)
10. Ветеран (4:36)-Слова и музыка: Олег Симонов
Вокал: Михаил Борисов и Наталья Сигаева (3)
Аранжировка: Валерий Лизнев и Андрей Журавлев (5,9)

Cue файл&#58;

REM GENRE Chanson
REM DATE 2014
REM DISCID 8109780A
REM COMMENT "ExactAudioCopy v1.0b3"
PERFORMER "Бутырка"
TITLE "Вернусь домой"
FILE "Бутырка - Вернусь домой.wav" WAVE
  TRACK 01 AUDIO
    TITLE "Вернусь домой"
    PERFORMER "Бутырка"
    ISRC 000000000000
    INDEX 01 00:00:00
  TRACK 02 AUDIO
    TITLE "Дарья"
    PERFORMER "Бутырка"
    ISRC 000000000000
    INDEX 01 04:10:03
  TRACK 03 AUDIO
    TITLE "Что же это было"
    PERFORMER "Бутырка"
    ISRC 000000000000
    INDEX 01 08:12:49
  TRACK 04 AUDIO
    TITLE "Качнем вагон"
    PERFORMER "Бутырка"
    ISRC 000000000000
    INDEX 01 12:07:36
  TRACK 05 AUDIO
    TITLE "Воздух весны"
    PERFORMER "Бутырка"
    ISRC 000000000000
    INDEX 01 15:40:27
  TRACK 06 AUDIO
    TITLE "Ни пенсии, ни хаты"
    PERFORMER "Бутырка"
    ISRC 000000000000
    INDEX 01 20:32:03
  TRACK 07 AUDIO
    TITLE "Перекресток"
    PERFORMER "Бутырка"
    ISRC 000000000000
    INDEX 01 25:12:27
  TRACK 08 AUDIO
    TITLE "И полетят рубли"
    PERFORMER "Бутырка"
    ISRC 000000000000
    INDEX 01 28:56:46
  TRACK 09 AUDIO
    TITLE "Женщина"
    PERFORMER "Бутырка"
    ISRC 000000000000
    INDEX 01 32:42:30
  TRACK 10 AUDIO
    TITLE "Ветеран"
    PERFORMER "Бутырка"
    ISRC 000000000000
    INDEX 01 35:48:36

Отчёт ЕАС&#58;

Exact Audio Copy V1.0 beta 3 from 29. August 2011
Отчёт EAC об извлечении, выполненном 17. сентября 2014, 22:37
Бутырка / Вернусь домой
Дисковод: ASUS    DRW-22B3S   Adapter: 0  ID: 1
Режим чтения                 : Достоверность
Использование точного потока : Да
Отключение кэша аудио        : Да
Использование указателей C2  : Нет
Коррекция смещения при чтении                     : 6
Способность читать области Lead-in и Lead-out     : Нет
Заполнение пропущенных сэмплов тишиной            : Да
Удаление блоков с тишиной в начале и конце        : Нет
При вычислениях CRC использовались нулевые сэмплы : Да
Интерфейс                                         : Встроенный Win32-интерфейс для Win NT/2000
Выходной формат : Внутренние WAV-операции
Формат сэмплов  : 44.100 Гц; 16 бит; стерео
TOC извлечённого CD
     Трек |   Старт  | Длительность | Начальный сектор | Конечный сектор
    ---------------------------------------------------------------------
       1  |  0:00.00 |    4:10.03   |           0      |      18752
       2  |  4:10.03 |    4:02.46   |       18753      |      36948
       3  |  8:12.49 |    3:54.62   |       36949      |      54560
       4  | 12:07.36 |    3:32.66   |       54561      |      70526
       5  | 15:40.27 |    4:51.51   |       70527      |      92402
       6  | 20:32.03 |    4:40.24   |       92403      |     113426
       7  | 25:12.27 |    3:44.19   |      113427      |     130245
       8  | 28:56.46 |    3:45.59   |      130246      |     147179
       9  | 32:42.30 |    3:06.06   |      147180      |     161135
      10  | 35:48.36 |    4:36.04   |      161136      |     181839
Характеристики диапазона извлечения и сообщения об ошибках
Выбранный диапазон
     Имя файла C:\defyz86\2014 - Бутырка - Вернусь домой\Бутырка - Вернусь домой.wav
     Пиковый уровень 96.5 %
     Скорость извлечения 3.2 X
     Качество диапазона 100.0 %
     CRC теста 4E094343
     CRC копии 4E094343
     Копирование... OK
Ошибок не произошло
AccurateRip: сводка
Трек  1  отсутствует в базе данных
Трек  2  отсутствует в базе данных
Трек  3  отсутствует в базе данных
Трек  4  отсутствует в базе данных
Трек  5  отсутствует в базе данных
Трек  6  отсутствует в базе данных
Трек  7  отсутствует в базе данных
Трек  8  отсутствует в базе данных
Трек  9  отсутствует в базе данных
Трек 10  отсутствует в базе данных
Ни одного трека нет в базе AccurateRip
Конец отчёта
==== Контрольная сумма отчёта 78EA613C977D75A53CF69012CD7DE1CCE7CD0FF0B7878CE052BA0C2EE317894E ====

Отчёт auCDtect Task manager&#58;

-----------------------
DON'T MODIFY THIS FILE
-----------------------
PERFORMER: auCDtect Task Manager, ver. 1.0.0 Stable build 1.0.0.0
Copyright (c) 2008, 2009 y-soft. All rights reserved
http://y-soft.110mb.com
ANALYZER: auCDtect: CD records authenticity detector, version 0.8.2
Copyright (c) 2004 Oleg Berngardt. All rights reserved.
Copyright (c) 2004 Alexander Djourik. All rights reserved.
FILE: Бутырка - Вернусь домой.flac
  Size: 318155973 Hash: 85B5DDC72F661A35D0A5F5E1DC8C7D57 Accuracy: -m0
  Conclusion: CDDA 100%
  Signature: 85FF8C13C8E1E9BBB7AF43C87D7B5C1DEB0E4B35
-
Яндекс.Метрика
Рейтинг@Mail.ru