[ Сегодня на трекере фрилич! Идет свободное скачивание без начисления Download ]

Тайны следствия (2014 ,Криминал, детектив) (Ольга Кандидатова)SATRip (сезон 14, серии 1-16 из 16)

 

Создавать темы 16-Дек-2014 18:18

-Тайны следствия 14 (2014) SATRip (сезон 14, серии 1-16 из 16)- Год выпуска: 2014
Страна: Россия
Жанр: Криминал, детектив
Выпущено: Россия, Форвард-Фильм, Студия Панорама
Режиссер: Ольга Кандидатова
Актеры: Анна Ковальчук, Вячеслав Захаров, Игорь Николаев (II), Александр Новиков (III), Ольга Павловец, Мирослав Малич, Злата Ильченко, Юлия Яковлева, Олег Алмазов, Дмитрий Поднозов, Яна Кушаковская, Гульназ Насырова, Дмитрий Максимов (II), Гавриил Федотов, Варвара Шалагина, Кирилл Фролов, Сергей Мардарь, Василина Стрельникова, Роман Павлушев, Сергей Малюгов, Андрей Шарков, Мария Павлова, Ксения Асмоловская, Ирина Коваленко (II), Юрий Архангельский
Описание:
Как всегда блестяще справляясь со своими профессиональными обязанностями, Мария Швецова должна постоянно помнить и о другой важной части своей жизни. Семья тоже требует её терпения и заботы. Любимая мама и обожаемая супруга, как всегда проводит дома слишком мало времени, чтобы уделять хозяйству достаточно внимания. Поэтому Луганский предлагает Маше взять помощницу по дому, но Швецова не спешит соглашаться на это предложение, тем более, что Злата принимает эту идею в штыки: теперь она сама будет вести дом в отсутствие мамы! Отрадная поддержка со стороны дочери приходится очень кстати, ведь новые очень серьёзные дела не заставляют себя ждать. Швецовой приходится заниматься не только банальными на первый взгляд убийствами, но и расследованиями, в которых замешаны политические мотивы. И самые на первый взгляд просто складывающиеся расследования часто помогают вскрывать удивительные и страшные тайны прошлого.
Так, поимка свидетельницы, сбежавшей с места убийства модного ловеласа, позволяет раскрыть семейную тайну и связанную с ней драму, тщательно скрывавшиеся много лет, а убийство общественника Чибисова оборачивается запутанным делом, в котором личные мотивы преступления тесно переплелись с интересами крупного теневого бизнеса. Обнаруженный в кустах возле дороги труп женщины, усыпанный мелкими долларовыми купюрами, наводит оперативников на мысль о простом разбое, но Маша понимает, что в этом случае мотивы убийцы могут быть гораздо глубже... В то же время смерть бомжа, найденного «собачником» на пустыре, оказывается связанной с другим преступлением, произошедшим неподалёку, и общие черты, объединяющие гибель двух совершенно разных людей, оказывается под силу выявить только Швецовой… Впрочем, практика Марии Сергеевны столь насыщена запутанными делами, что для неё самой поиски «двойного дна» в каждом самом мало примечательном расследовании вошли в привычку. Но если бы рядом со Швецовой не было её верных друзей, коллег и старого наставника Ковина, едва ли бы ей удалось добиться столь внушительных успехов. К счастью, на работе Маше почти также хорошо и уютно как дома, и помощницы ей, в сущности, совершенно не нужны...

Продолжительность: ~00:43:00 серия
Качество видео: SATRip
Формат файла: AVI
Видеокодек: Xvid
Битрейт видео: ~1800 Кбит/сек
Размер кадра: 720x400 (16:9)
Аудиокодек: AC3, 2ch.
Битрейт аудио: 192 Кбит/сек

MediaInfo:

Общее
Полное имя : D:\тайны следствия 14.SATRip\Tainy.Sledstviya-14.01.SATRip.avi
Формат : AVI
Формат/Информация : Audio Video Interleave
Размер файла : 630 Мбайт
Продолжительность : 43 м.
Общий поток : 2002 Кбит/сек
Программа кодирования : VirtualDubMod 1.5.10.3 | www.virtualdub-fr.org || (build 2550/release)
Библиотека кодирования : VirtualDubMod build 2550/release
Видео
Идентификатор : 0
Формат : MPEG-4 Visual
Профиль формата : Advanced [email protected]
Параметр BVOP формата : 2
Параметр QPel формата : Нет
Параметр GMC формата : Без точки перехода
Параметр матрицы формата : Default (H.263)
Идентификатор кодека : XVID
Идентификатор кодека/Подсказка : XviD
Продолжительность : 43 м.
Битрейт : 1800 Кбит/сек
Ширина : 720 пикселей
Высота : 400 пикселей
Соотношение сторон : 16:9
Частота кадров : 25,000 кадров/сек
Цветовое пространство : YUV
Субдискретизация насыщенности : 4:2:0
Битовая глубина : 8 бит
Тип развёртки : Прогрессивная
Метод сжатия : С потерями
Бит/(Пиксели*Кадры) : 0.250
Размер потока : 566 Мбайт (90%)
Библиотека кодирования : XviD 1.2.1 (UTC 2008-12-04)
Аудио
Идентификатор : 1
Формат : AC-3
Формат/Информация : Audio Coding 3
Расширение режима : CM (complete main)
Параметр Endianness формата : Big
Идентификатор кодека : 2000
Продолжительность : 43 м.
Вид битрейта : Постоянный
Битрейт : 192 Кбит/сек
Каналы : 2 канала
Расположение каналов : Front: L R
Частота : 48,0 КГц
Битовая глубина : 16 бит
Метод сжатия : С потерями
Размер потока : 60,4 Мбайт (10%)
Выравнивание : Разделение по промежуткам
Продолжительность промежутка : 40 мс. (1,00 видеокадр)
Время предзагрузки промежутка : 500 мс.

Внимание! Раздача ведётся путём добавления новых серий

Внимание! Раздача ведётся путём добавления новых серий; при каждом добавлении создаётся новый торрент.
Чтобы начать докачку новой серии, пользователям необходимо сделать следующее:
1. Остановить скачивание;
2. Удалить старый торрент у себя из клиента (старые серии удалять не надо);
3. Скачать новый торрент и запустить его у себя в клиенте вместо старого, при этом указать клиенту путь в старую папку куда и должно происходить скачивание новых серий. Ваш клиент при этом должен произвести хеширование (проверку) старой папки и будет докачивать только те серии, которых у вас ещё нет. Старые серии при этом не удаляются, а продолжают раздаваться! Eсли вы уже удалили старые серии, то предотвратить повторную закачку старых серий можно, отжав галочку в соответствующих местах при запуске нового торрента.
Скриншоты:Раздача обновлена до 16 серии.Сезон окончен
Яндекс.Метрика
Рейтинг@Mail.ru