Со мною вот что происходит (Виктор Шамиров) [2012 г., мелодрама, комедия, DVDRip][Лицензия]

 

Создавать темы 16-Ноя-2013 13:18

-Со мною вот что происходит- Производство: Россия / Кинокомпания Сцена
Режиссер: Виктор Шамиров
Жанр: мелодрама, комедия
Год выпуска: 2012 г.
Продолжительность: 01:13:40-Мировая премьера: 19 ноября 2012
Российская премьера: 6 декабря 2012, «Другое кино», «All Media»
Релиз на DVD: 12 ноября 2013, «Lizard Cinema Trade»-В ролях: Гоша Куценко, Виктор Шамиров, Олеся Железняк, Саша Петрова, Николай Чиндяйкин, Маргарита Шубина, Александр Робак-Описание: 31 декабря. Московские невозможные пробки. Спешка без результатов, помощь, от которой никому не становится легче. Разговоры о бесконечных мелочах, в которых проходит жизнь - а может, уже и прошла. Об отце, которому осталось всего ничего, и ничего не сделаешь. О планах пятнадцатилетней девочки на жизнь: можно стать онкологом, можно - дизайнером еды. О том, что было, и что теперь.- -Качество видео: DVDRip
Контейнер: AVI
Видео кодек: XviD
Аудио кодек: AC3
Видео: 720x304 (2.37:1), 25 fps, XviD build 50 ~2197 kbps avg, 0.40 bit/pixel
Аудио: 48 kHz, AC3 Dolby Digital, 2/0 (L,R) ch, ~448 kbps
Cубтитры: отсутствуют

Media Info

Общее
Полное имя : H:\Torrent2\So.mnou.vot.chto.proishodit.2012.O.DVDRip.1400Mb_[pirat.ca].avi
Формат : AVI
Формат/Информация : Audio Video Interleave
Размер файла : 1,37 Гбайт
Продолжительность : 1 ч. 13 м.
Общий поток : 2656 Кбит/сек
Программа кодирования : VirtualDubMod 1.5.10.3 | www.virtualdub-fr.org || (build 2550/release)
Библиотека кодирования : VirtualDubMod build 2550/release
Видео
Идентификатор : 0
Формат : MPEG-4 Visual
Профиль формата : Advanced [email protected]
Параметр BVOP формата : 2
Параметр QPel формата : Нет
Параметр GMC формата : Без точки перехода
Параметр матрицы формата : Default (MPEG)
Идентификатор кодека : XVID
Идентификатор кодека/Подсказка : XviD
Продолжительность : 1 ч. 13 м.
Битрейт : 2198 Кбит/сек
Ширина : 720 пикселей
Высота : 304 пикселя
Соотношение сторон : 2,35:1
Частота кадров : 25,000 кадров/сек
Цветовое пространство : YUV
Субдискретизация насыщенности : 4:2:0
Битовая глубина : 8 бит
Тип развёртки : Прогрессивная
Метод сжатия : С потерями
Бит/(Пиксели*Кадры) : 0.402
Размер потока : 1,13 Гбайт (83%)
Библиотека кодирования : XviD 1.2.1 (UTC 2008-12-04)
Аудио
Идентификатор : 1
Формат : AC-3
Формат/Информация : Audio Coding 3
Расширение режима : CM (complete main)
Параметр Endianness формата : Big
Идентификатор кодека : 2000
Продолжительность : 1 ч. 13 м.
Вид битрейта : Постоянный
Битрейт : 448 Кбит/сек
Каналы : 2 канала
Расположение каналов : Front: L R
Частота : 48,0 КГц
Битовая глубина : 16 бит
Метод сжатия : С потерями
Размер потока : 236 Мбайт (17%)
Выравнивание : Разделение по промежуткам
Продолжительность промежутка : 40 мс. (1,00 видеокадр)
Время предзагрузки промежутка : 500 мс.

Скриншоты

Трейлер
Яндекс.Метрика
Рейтинг@Mail.ru