Armin van Buuren - A State Of Trance Episode 686 (2014) [MP3|320 кб/с]<Trance,Progressive Trance>

 

Создавать темы 15-Дек-2014 23:21

-Armin van Buuren - A State Of Trance Episode 686 (2014)- Год: 2014
Жанр: Trance,Progressive Trance
Продолжительность: 02:00:14
Страна: Netherlands
Оф.сайт: arminvanbuuren.com
Кодек: MP3
Битрейт: 320 кб/с
Тип битрейта: CBR-Треклист:
01. Above & Beyond feat. Zoe Johnston vs. Olive – We’re All We Need vs. You’re Not Alone (Armin van Buuren Mashup)
02. Zuubi – Uzume
03. Tenishia & Susana – Never Let You Down
04. Dash Berlin & 3LAU feat. Bright Lights – Somehow
05. Super8 & Tab – Clairvoyant
06. Ost & Meyer, Ronski Speed, Cate Kanell – Fortress
07. Heatbeat & Chris Schweizer – The Beast
08. Heatbeat & Chris Schweizer – Nasty
09. Heatbeat & Bjorn Akesson – Pharaon
-

Продолжение&#58;

10. Ferry Tayle feat. Sarah Shields & Ludovic H – The Most Important Thing (Willem de Roo Remix)
11. Armin van Buuren – Save My Night (Mark Sixma Remix)
12. Yang – 9 Dragons
13. Genix – Lux
14. Markus Schulz – Seven Sins (Transmission 2014 Theme)
15. Driftmoon – Stronghold
16. Faruk Sabanci – Ruya
17. The Thrillseekers – Find You
18. Arisen Flame – Redemption
19. Dart Rayne & Yura Moonlight feat. Sarah Lynn – Silhouette (Afternova Remix)
20. Adam White – Ballerina (Scott Bond & Charlie Walker REBOOTED Remix)
21. Lange feat. Susana – Risk Worth Taking (Adam Ellis Remix)
22. 3DW – Centraal
23. Paul van Dyk, Jessus & Adham Ashraf feat. Tricia McTeague – Only In A Dream (PvD Club Mix)
24. James Rigby – Night Owl
25. Paul Rigel – Far Away
26. Bobina – Winter (Simon O’Shine Remix)
27. ReOrder & Ian Standerwick pres. SkyPatrol – Skyres
28. Allen Watts – Recharge
29. Orkidea – Purity (Sneijder Remix)
30. Neelix – Coloured Light (Simon Patterson Remix)
31. Smuel & Choopie – Sunrising (ASOT Radio Classic)
-

MI&#58;

Общее
Полное имя                       : D:\Armin van Buuren - A State of Trance 686 (2014)\01. A State Of Trance - Intro.mp3
Формат                           : MPEG Audio
Размер файла                     : 2,07 Мбайт
Продолжительность                : 53 с.
Режим общего битрейта            : Постоянный
Общий поток                      : 320 Кбит/сек
Альбом                           : A State Of Trance 686 (2014-10-23)
Трек                             : Intro
Трек/Положение                   : 01
Исполнитель                      : A State Of Trance
Жанр                             :
Дата записи                      : 2014
Примечание                       : 320kbps
Аудио
Формат                           : MPEG Audio
Версия формата                   : Version 1
Профиль формата                  : Layer 3
Продолжительность                : 53 с.
Вид битрейта                     : Постоянный
Битрейт                          : 320 Кбит/сек
Каналы                           : 2 канала
Частота                          : 44,1 КГц
Метод сжатия                     : С потерями
Размер потока                    : 2,06 Мбайт (100%)
Общее
Полное имя                       : D:\Armin van Buuren - A State of Trance 686 (2014)\02. Above & Beyond Feat. Zoe Johnston - We All We Need vs. Olive - We’re All We Need vs. You’re Not Alone (Armin van Buuren Mashup).mp3
Формат                           : MPEG Audio
Размер файла                     : 14,5 Мбайт
Продолжительность                : 6 м. 19 с.
Режим общего битрейта            : Постоянный
Общий поток                      : 320 Кбит/сек
Альбом                           : A State Of Trance 686 (2014-10-23)
Трек                             : We’re All We Need vs. You’re Not Alone (Armin van Buuren Mashup)
Трек/Положение                   : 02
Исполнитель                      : Above & Beyond Feat. Zoe Johnston - We All We Need vs. Olive
Жанр                             :
Дата записи                      : 2014
Примечание                       : 320kbps
Аудио
Формат                           : MPEG Audio
Версия формата                   : Version 1
Профиль формата                  : Layer 3
Продолжительность                : 6 м. 19 с.
Вид битрейта                     : Постоянный
Битрейт                          : 320 Кбит/сек
Каналы                           : 2 канала
Частота                          : 44,1 КГц
Метод сжатия                     : С потерями
Размер потока                    : 14,5 Мбайт (100%)
Общее
Полное имя                       : D:\Armin van Buuren - A State of Trance 686 (2014)\03. Zuubi - Uzume.mp3
Формат                           : MPEG Audio
Размер файла                     : 5,38 Мбайт
Продолжительность                : 2 м. 20 с.
Режим общего битрейта            : Постоянный
Общий поток                      : 320 Кбит/сек
Альбом                           : A State Of Trance 686 (2014-10-23)
Трек                             : Uzume
Трек/Положение                   : 03
Исполнитель                      : Zuubi
Жанр                             :
Дата записи                      : 2014
Примечание                       : 320kbps
Аудио
Формат                           : MPEG Audio
Версия формата                   : Version 1
Профиль формата                  : Layer 3
Продолжительность                : 2 м. 21 с.
Вид битрейта                     : Постоянный
Битрейт                          : 320 Кбит/сек
Каналы                           : 2 канала
Частота                          : 44,1 КГц
Метод сжатия                     : С потерями
Размер потока                    : 5,38 Мбайт (100%)
Общее
Полное имя                       : D:\Armin van Buuren - A State of Trance 686 (2014)\04. Tenishia & Susana - Never Let You Down.mp3
Формат                           : MPEG Audio
Размер файла                     : 7,35 Мбайт
Продолжительность                : 3 м. 12 с.
Режим общего битрейта            : Постоянный
Общий поток                      : 320 Кбит/сек
Альбом                           : A State Of Trance 686 (2014-10-23)
Трек                             : Never Let You Down
Трек/Положение                   : 04
Исполнитель                      : Tenishia & Susana
Жанр                             :
Дата записи                      : 2014
Примечание                       : 320kbps
Аудио
Формат                           : MPEG Audio
Версия формата                   : Version 1
Профиль формата                  : Layer 3
Продолжительность                : 3 м. 12 с.
Вид битрейта                     : Постоянный
Битрейт                          : 320 Кбит/сек
Каналы                           : 2 канала
Частота                          : 44,1 КГц
Метод сжатия                     : С потерями
Размер потока                    : 7,34 Мбайт (100%)
Общее
Полное имя                       : D:\Armin van Buuren - A State of Trance 686 (2014)\05. Dash Berlin & 3LAU Feat. Bright Lights - Somehow.mp3
Формат                           : MPEG Audio
Размер файла                     : 8,89 Мбайт
Продолжительность                : 3 м. 52 с.
Режим общего битрейта            : Постоянный
Общий поток                      : 320 Кбит/сек
Альбом                           : A State Of Trance 686 (2014-10-23)
Трек                             : Somehow
Трек/Положение                   : 05
Исполнитель                      : Dash Berlin & 3LAU Feat. Bright Lights
Жанр                             :
Дата записи                      : 2014
Примечание                       : 320kbps
Аудио
Формат                           : MPEG Audio
Версия формата                   : Version 1
Профиль формата                  : Layer 3
Продолжительность                : 3 м. 53 с.
Вид битрейта                     : Постоянный
Битрейт                          : 320 Кбит/сек
Каналы                           : 2 канала
Частота                          : 44,1 КГц
Метод сжатия                     : С потерями
Размер потока                    : 8,89 Мбайт (100%)
Общее
Полное имя                       : D:\Armin van Buuren - A State of Trance 686 (2014)\06. Super8 & Tab - Clairvoyant.mp3
Формат                           : MPEG Audio
Размер файла                     : 5,86 Мбайт
Продолжительность                : 2 м. 33 с.
Режим общего битрейта            : Постоянный
Общий поток                      : 320 Кбит/сек
Альбом                           : A State Of Trance 686 (2014-10-23)
Трек                             : Clairvoyant
Трек/Положение                   : 06
Исполнитель                      : Super8 & Tab
Жанр                             :
Дата записи                      : 2014
Примечание                       : 320kbps
Аудио
Формат                           : MPEG Audio
Версия формата                   : Version 1
Профиль формата                  : Layer 3
Продолжительность                : 2 м. 33 с.
Вид битрейта                     : Постоянный
Битрейт                          : 320 Кбит/сек
Каналы                           : 2 канала
Частота                          : 44,1 КГц
Метод сжатия                     : С потерями
Размер потока                    : 5,86 Мбайт (100%)
Общее
Полное имя                       : D:\Armin van Buuren - A State of Trance 686 (2014)\07. Ost & Meyer & Ronski Speed Feat. Cate Kanell - Fortress.mp3
Формат                           : MPEG Audio
Размер файла                     : 10,9 Мбайт
Продолжительность                : 4 м. 45 с.
Режим общего битрейта            : Постоянный
Общий поток                      : 320 Кбит/сек
Альбом                           : A State Of Trance 686 (2014-10-23)
Трек                             : Fortress
Трек/Положение                   : 07
Исполнитель                      : Ost & Meyer & Ronski Speed Feat. Cate Kanell
Жанр                             :
Дата записи                      : 2014
Примечание                       : 320kbps
Аудио
Формат                           : MPEG Audio
Версия формата                   : Version 1
Профиль формата                  : Layer 3
Продолжительность                : 4 м. 45 с.
Вид битрейта                     : Постоянный
Битрейт                          : 320 Кбит/сек
Каналы                           : 2 канала
Частота                          : 44,1 КГц
Метод сжатия                     : С потерями
Размер потока                    : 10,9 Мбайт (100%)
Общее
Полное имя                       : D:\Armin van Buuren - A State of Trance 686 (2014)\08. Heatbeat & Chris Schweizer - The Beast.mp3
Формат                           : MPEG Audio
Размер файла                     : 4,13 Мбайт
Продолжительность                : 1 м. 47 с.
Режим общего битрейта            : Постоянный
Общий поток                      : 320 Кбит/сек
Альбом                           : A State Of Trance 686 (2014-10-23)
Трек                             : The Beast
Трек/Положение                   : 08
Исполнитель                      : Heatbeat & Chris Schweizer
Жанр                             :
Дата записи                      : 2014
Примечание                       : 320kbps
Аудио
Формат                           : MPEG Audio
Версия формата                   : Version 1
Профиль формата                  : Layer 3
Продолжительность                : 1 м. 48 с.
Вид битрейта                     : Постоянный
Битрейт                          : 320 Кбит/сек
Каналы                           : 2 канала
Частота                          : 44,1 КГц
Метод сжатия                     : С потерями
Размер потока                    : 4,12 Мбайт (100%)
Общее
Полное имя                       : D:\Armin van Buuren - A State of Trance 686 (2014)\09. Heatbeat & Chris Schweizer - Nasty.mp3
Формат                           : MPEG Audio
Размер файла                     : 7,51 Мбайт
Продолжительность                : 3 м. 16 с.
Режим общего битрейта            : Постоянный
Общий поток                      : 320 Кбит/сек
Альбом                           : A State Of Trance 686 (2014-10-23)
Трек                             : Nasty
Трек/Положение                   : 09
Исполнитель                      : Heatbeat & Chris Schweizer
Жанр                             :
Дата записи                      : 2014
Примечание                       : 320kbps
Аудио
Формат                           : MPEG Audio
Версия формата                   : Version 1
Профиль формата                  : Layer 3
Продолжительность                : 3 м. 16 с.
Вид битрейта                     : Постоянный
Битрейт                          : 320 Кбит/сек
Каналы                           : 2 канала
Частота                          : 44,1 КГц
Метод сжатия                     : С потерями
Размер потока                    : 7,50 Мбайт (100%)
Общее
Полное имя                       : D:\Armin van Buuren - A State of Trance 686 (2014)\10. Heatbeat & Bjorn Akesson - Pharaon.mp3
Формат                           : MPEG Audio
Размер файла                     : 5,91 Мбайт
Продолжительность                : 2 м. 34 с.
Режим общего битрейта            : Постоянный
Общий поток                      : 320 Кбит/сек
Альбом                           : A State Of Trance 686 (2014-10-23)
Трек                             : Pharaon
Трек/Положение                   : 10
Исполнитель                      : Heatbeat & Bjorn Akesson
Жанр                             :
Дата записи                      : 2014
Примечание                       : 320kbps
Аудио
Формат                           : MPEG Audio
Версия формата                   : Version 1
Профиль формата                  : Layer 3
Продолжительность                : 2 м. 34 с.
Вид битрейта                     : Постоянный
Битрейт                          : 320 Кбит/сек
Каналы                           : 2 канала
Частота                          : 44,1 КГц
Метод сжатия                     : С потерями
Размер потока                    : 5,90 Мбайт (100%)
Общее
Полное имя                       : D:\Armin van Buuren - A State of Trance 686 (2014)\11. Ferry Tayle Feat. Sarah Shields & Ludovic H - The Most Important Thing (Willen de Roo Remix).mp3
Формат                           : MPEG Audio
Размер файла                     : 7,70 Мбайт
Продолжительность                : 3 м. 21 с.
Режим общего битрейта            : Постоянный
Общий поток                      : 320 Кбит/сек
Альбом                           : A State Of Trance 686 (2014-10-23)
Трек                             : The Most Important Thing (Willen de Roo Remix)
Трек/Положение                   : 11
Исполнитель                      : Ferry Tayle Feat. Sarah Shields & Ludovic H
Жанр                             :
Дата записи                      : 2014
Примечание                       : 320kbps
Аудио
Формат                           : MPEG Audio
Версия формата                   : Version 1
Профиль формата                  : Layer 3
Продолжительность                : 3 м. 21 с.
Вид битрейта                     : Постоянный
Битрейт                          : 320 Кбит/сек
Каналы                           : 2 канала
Частота                          : 44,1 КГц
Метод сжатия                     : С потерями
Размер потока                    : 7,69 Мбайт (100%)
Общее
Полное имя                       : D:\Armin van Buuren - A State of Trance 686 (2014)\12. Armin van Buuren - Save My Night (Mark Sixma Remix).mp3
Формат                           : MPEG Audio
Размер файла                     : 9,10 Мбайт
Продолжительность                : 3 м. 58 с.
Режим общего битрейта            : Постоянный
Общий поток                      : 320 Кбит/сек
Альбом                           : A State Of Trance 686 (2014-10-23)
Трек                             : Save My Night (Mark Sixma Remix)
Трек/Положение                   : 12
Исполнитель                      : Armin van Buuren
Жанр                             :
Дата записи                      : 2014
Примечание                       : 320kbps
Аудио
Формат                           : MPEG Audio
Версия формата                   : Version 1
Профиль формата                  : Layer 3
Продолжительность                : 3 м. 58 с.
Вид битрейта                     : Постоянный
Битрейт                          : 320 Кбит/сек
Каналы                           : 2 канала
Частота                          : 44,1 КГц
Метод сжатия                     : С потерями
Размер потока                    : 9,09 Мбайт (100%)
Общее
Полное имя                       : D:\Armin van Buuren - A State of Trance 686 (2014)\13. Yang - 9 Dragons.mp3
Формат                           : MPEG Audio
Размер файла                     : 8,93 Мбайт
Продолжительность                : 3 м. 53 с.
Режим общего битрейта            : Постоянный
Общий поток                      : 320 Кбит/сек
Альбом                           : A State Of Trance 686 (2014-10-23)
Трек                             : 9 Dragons
Трек/Положение                   : 13
Исполнитель                      : Yang
Жанр                             :
Дата записи                      : 2014
Примечание                       : 320kbps
Аудио
Формат                           : MPEG Audio
Версия формата                   : Version 1
Профиль формата                  : Layer 3
Продолжительность                : 3 м. 54 с.
Вид битрейта                     : Постоянный
Битрейт                          : 320 Кбит/сек
Каналы                           : 2 канала
Частота                          : 44,1 КГц
Метод сжатия                     : С потерями
Размер потока                    : 8,92 Мбайт (100%)
Общее
Полное имя                       : D:\Armin van Buuren - A State of Trance 686 (2014)\14. Genix - Lux.mp3
Формат                           : MPEG Audio
Размер файла                     : 9,12 Мбайт
Продолжительность                : 3 м. 58 с.
Режим общего битрейта            : Постоянный
Общий поток                      : 320 Кбит/сек
Альбом                           : A State Of Trance 686 (2014-10-23)
Трек                             : Lux
Трек/Положение                   : 14
Исполнитель                      : Genix
Жанр                             :
Дата записи                      : 2014
Примечание                       : 320kbps
Аудио
Формат                           : MPEG Audio
Версия формата                   : Version 1
Профиль формата                  : Layer 3
Продолжительность                : 3 м. 59 с.
Вид битрейта                     : Постоянный
Битрейт                          : 320 Кбит/сек
Каналы                           : 2 канала
Частота                          : 44,1 КГц
Метод сжатия                     : С потерями
Размер потока                    : 9,12 Мбайт (100%)
Общее
Полное имя                       : D:\Armin van Buuren - A State of Trance 686 (2014)\15. Markus Schulz - Seven Sins.mp3
Формат                           : MPEG Audio
Размер файла                     : 9,93 Мбайт
Продолжительность                : 4 м. 20 с.
Режим общего битрейта            : Постоянный
Общий поток                      : 320 Кбит/сек
Альбом                           : A State Of Trance 686 (2014-10-23)
Трек                             : Seven Sins
Трек/Положение                   : 15
Исполнитель                      : Markus Schulz
Жанр                             :
Дата записи                      : 2014
Примечание                       : 320kbps
Аудио
Формат                           : MPEG Audio
Версия формата                   : Version 1
Профиль формата                  : Layer 3
Продолжительность                : 4 м. 20 с.
Вид битрейта                     : Постоянный
Битрейт                          : 320 Кбит/сек
Каналы                           : 2 канала
Частота                          : 44,1 КГц
Метод сжатия                     : С потерями
Размер потока                    : 9,92 Мбайт (100%)
Общее
Полное имя                       : D:\Armin van Buuren - A State of Trance 686 (2014)\16. Driftmoon - Stronghold.mp3
Формат                           : MPEG Audio
Размер файла                     : 6,44 Мбайт
Продолжительность                : 2 м. 48 с.
Режим общего битрейта            : Постоянный
Общий поток                      : 320 Кбит/сек
Альбом                           : A State Of Trance 686 (2014-10-23)
Трек                             : Stronghold
Трек/Положение                   : 16
Исполнитель                      : Driftmoon
Жанр                             :
Дата записи                      : 2014
Примечание                       : 320kbps
Аудио
Формат                           : MPEG Audio
Версия формата                   : Version 1
Профиль формата                  : Layer 3
Продолжительность                : 2 м. 48 с.
Вид битрейта                     : Постоянный
Битрейт                          : 320 Кбит/сек
Каналы                           : 2 канала
Частота                          : 44,1 КГц
Метод сжатия                     : С потерями
Размер потока                    : 6,43 Мбайт (100%)
Общее
Полное имя                       : D:\Armin van Buuren - A State of Trance 686 (2014)\17. Faruk Sabanci - Ruya.mp3
Формат                           : MPEG Audio
Размер файла                     : 7,25 Мбайт
Продолжительность                : 3 м. 9 с.
Режим общего битрейта            : Постоянный
Общий поток                      : 320 Кбит/сек
Альбом                           : A State Of Trance 686 (2014-10-23)
Трек                             : Ruya
Трек/Положение                   : 17
Исполнитель                      : Faruk Sabanci
Жанр                             :
Дата записи                      : 2014
Примечание                       : 320kbps
Аудио
Формат                           : MPEG Audio
Версия формата                   : Version 1
Профиль формата                  : Layer 3
Продолжительность                : 3 м. 10 с.
Вид битрейта                     : Постоянный
Битрейт                          : 320 Кбит/сек
Каналы                           : 2 канала
Частота                          : 44,1 КГц
Метод сжатия                     : С потерями
Размер потока                    : 7,24 Мбайт (100%)
Общее
Полное имя                       : D:\Armin van Buuren - A State of Trance 686 (2014)\18. The Thrillseekers - Find You.mp3
Формат                           : MPEG Audio
Размер файла                     : 8,22 Мбайт
Продолжительность                : 3 м. 35 с.
Режим общего битрейта            : Постоянный
Общий поток                      : 320 Кбит/сек
Альбом                           : A State Of Trance 686 (2014-10-23)
Трек                             : Find You
Трек/Положение                   : 18
Исполнитель                      : The Thrillseekers
Жанр                             :
Дата записи                      : 2014
Примечание                       : 320kbps
Аудио
Формат                           : MPEG Audio
Версия формата                   : Version 1
Профиль формата                  : Layer 3
Продолжительность                : 3 м. 35 с.
Вид битрейта                     : Постоянный
Битрейт                          : 320 Кбит/сек
Каналы                           : 2 канала
Частота                          : 44,1 КГц
Метод сжатия                     : С потерями
Размер потока                    : 8,21 Мбайт (100%)
Общее
Полное имя                       : D:\Armin van Buuren - A State of Trance 686 (2014)\19. Arisen Flame - Redemption [TUNE OF THE WEEK].mp3
Формат                           : MPEG Audio
Размер файла                     : 7,59 Мбайт
Продолжительность                : 3 м. 18 с.
Режим общего битрейта            : Постоянный
Общий поток                      : 320 Кбит/сек
Альбом                           : A State Of Trance 686 (2014-10-23)
Трек                             : Redemption [TUNE OF THE WEEK]
Трек/Положение                   : 19
Исполнитель                      : Arisen Flame
Жанр                             :
Дата записи                      : 2014
Примечание                       : 320kbps
Аудио
Формат                           : MPEG Audio
Версия формата                   : Version 1
Профиль формата                  : Layer 3
Продолжительность                : 3 м. 19 с.
Вид битрейта                     : Постоянный
Битрейт                          : 320 Кбит/сек
Каналы                           : 2 канала
Частота                          : 44,1 КГц
Метод сжатия                     : С потерями
Размер потока                    : 7,58 Мбайт (100%)
Общее
Полное имя                       : D:\Armin van Buuren - A State of Trance 686 (2014)\20. Dart Rayne & Yura Moonlight Feat. Sarah Lynn - Silhouette (Afternova Remix).mp3
Формат                           : MPEG Audio
Размер файла                     : 9,40 Мбайт
Продолжительность                : 4 м. 6 с.
Режим общего битрейта            : Постоянный
Общий поток                      : 320 Кбит/сек
Альбом                           : A State Of Trance 686 (2014-10-23)
Трек                             : Silhouette (Afternova Remix)
Трек/Положение                   : 20
Исполнитель                      : Dart Rayne & Yura Moonlight Feat. Sarah Lynn
Жанр                             :
Дата записи                      : 2014
Примечание                       : 320kbps
Аудио
Формат                           : MPEG Audio
Версия формата                   : Version 1
Профиль формата                  : Layer 3
Продолжительность                : 4 м. 6 с.
Вид битрейта                     : Постоянный
Битрейт                          : 320 Кбит/сек
Каналы                           : 2 канала
Частота                          : 44,1 КГц
Метод сжатия                     : С потерями
Размер потока                    : 9,39 Мбайт (100%)
Общее
Полное имя                       : D:\Armin van Buuren - A State of Trance 686 (2014)\21. Adam White - Ballerina (Scott Bond & Charlie Walker REBOOTED).mp3
Формат                           : MPEG Audio
Размер файла                     : 7,96 Мбайт
Продолжительность                : 3 м. 28 с.
Режим общего битрейта            : Постоянный
Общий поток                      : 320 Кбит/сек
Альбом                           : A State Of Trance 686 (2014-10-23)
Трек                             : Ballerina (Scott Bond & Charlie Walker REBOOTED)
Трек/Положение                   : 21
Исполнитель                      : Adam White
Жанр                             :
Дата записи                      : 2014
Примечание                       : 320kbps
Аудио
Формат                           : MPEG Audio
Версия формата                   : Version 1
Профиль формата                  : Layer 3
Продолжительность                : 3 м. 28 с.
Вид битрейта                     : Постоянный
Битрейт                          : 320 Кбит/сек
Каналы                           : 2 канала
Частота                          : 44,1 КГц
Метод сжатия                     : С потерями
Размер потока                    : 7,95 Мбайт (100%)
Общее
Полное имя                       : D:\Armin van Buuren - A State of Trance 686 (2014)\22. Lange Feat. Susana - Risk Worth Taking (Adam Ellis Remix).mp3
Формат                           : MPEG Audio
Размер файла                     : 15,6 Мбайт
Продолжительность                : 6 м. 48 с.
Режим общего битрейта            : Постоянный
Общий поток                      : 320 Кбит/сек
Альбом                           : A State Of Trance 686 (2014-10-23)
Трек                             : Risk Worth Taking (Adam Ellis Remix)
Трек/Положение                   : 22
Исполнитель                      : Lange Feat. Susana
Жанр                             :
Дата записи                      : 2014
Примечание                       : 320kbps
Аудио
Формат                           : MPEG Audio
Версия формата                   : Version 1
Профиль формата                  : Layer 3
Продолжительность                : 6 м. 48 с.
Вид битрейта                     : Постоянный
Битрейт                          : 320 Кбит/сек
Каналы                           : 2 канала
Частота                          : 44,1 КГц
Метод сжатия                     : С потерями
Размер потока                    : 15,6 Мбайт (100%)
Общее
Полное имя                       : D:\Armin van Buuren - A State of Trance 686 (2014)\23. 3DW - Centraal.mp3
Формат                           : MPEG Audio
Размер файла                     : 7,05 Мбайт
Продолжительность                : 3 м. 4 с.
Режим общего битрейта            : Постоянный
Общий поток                      : 320 Кбит/сек
Альбом                           : A State Of Trance 686 (2014-10-23)
Трек                             : Centraal
Трек/Положение                   : 23
Исполнитель                      : 3DW
Жанр                             :
Дата записи                      : 2014
Примечание                       : 320kbps
Аудио
Формат                           : MPEG Audio
Версия формата                   : Version 1
Профиль формата                  : Layer 3
Продолжительность                : 3 м. 4 с.
Вид битрейта                     : Постоянный
Битрейт                          : 320 Кбит/сек
Каналы                           : 2 канала
Частота                          : 44,1 КГц
Метод сжатия                     : С потерями
Размер потока                    : 7,04 Мбайт (100%)
Общее
Полное имя                       : D:\Armin van Buuren - A State of Trance 686 (2014)\24. Paul van Dyk, Jessus & Adham Ashraf Feat. Tricia McTeague - Only A Dream (Paul van Dyk Club Mix).mp3
Формат                           : MPEG Audio
Размер файла                     : 8,02 Мбайт
Продолжительность                : 3 м. 29 с.
Режим общего битрейта            : Постоянный
Общий поток                      : 320 Кбит/сек
Альбом                           : A State Of Trance 686 (2014-10-23)
Трек                             : Only A Dream (Paul van Dyk Club Mix)
Трек/Положение                   : 24
Исполнитель                      : Paul van Dyk, Jessus & Adham Ashraf Feat. Tricia McTeague
Жанр                             :
Дата записи                      : 2014
Примечание                       : 320kbps
Аудио
Формат                           : MPEG Audio
Версия формата                   : Version 1
Профиль формата                  : Layer 3
Продолжительность                : 3 м. 30 с.
Вид битрейта                     : Постоянный
Битрейт                          : 320 Кбит/сек
Каналы                           : 2 канала
Частота                          : 44,1 КГц
Метод сжатия                     : С потерями
Размер потока                    : 8,01 Мбайт (100%)
Общее
Полное имя                       : D:\Armin van Buuren - A State of Trance 686 (2014)\25. James Rigby - Night Owl.mp3
Формат                           : MPEG Audio
Размер файла                     : 7,49 Мбайт
Продолжительность                : 3 м. 16 с.
Режим общего битрейта            : Постоянный
Общий поток                      : 320 Кбит/сек
Альбом                           : A State Of Trance 686 (2014-10-23)
Трек                             : Night Owl
Трек/Положение                   : 25
Исполнитель                      : James Rigby
Жанр                             :
Дата записи                      : 2014
Примечание                       : 320kbps
Аудио
Формат                           : MPEG Audio
Версия формата                   : Version 1
Профиль формата                  : Layer 3
Продолжительность                : 3 м. 16 с.
Вид битрейта                     : Постоянный
Битрейт                          : 320 Кбит/сек
Каналы                           : 2 канала
Частота                          : 44,1 КГц
Метод сжатия                     : С потерями
Размер потока                    : 7,48 Мбайт (100%)
Общее
Полное имя                       : D:\Armin van Buuren - A State of Trance 686 (2014)\26. Paul Rigel - Far Away.mp3
Формат                           : MPEG Audio
Размер файла                     : 7,99 Мбайт
Продолжительность                : 3 м. 29 с.
Режим общего битрейта            : Постоянный
Общий поток                      : 320 Кбит/сек
Альбом                           : A State Of Trance 686 (2014-10-23)
Трек                             : Far Away
Трек/Положение                   : 26
Исполнитель                      : Paul Rigel
Жанр                             :
Дата записи                      : 2014
Примечание                       : 320kbps
Аудио
Формат                           : MPEG Audio
Версия формата                   : Version 1
Профиль формата                  : Layer 3
Продолжительность                : 3 м. 29 с.
Вид битрейта                     : Постоянный
Битрейт                          : 320 Кбит/сек
Каналы                           : 2 канала
Частота                          : 44,1 КГц
Метод сжатия                     : С потерями
Размер потока                    : 7,98 Мбайт (100%)
Общее
Полное имя                       : D:\Armin van Buuren - A State of Trance 686 (2014)\27. Bobina - Winter (Simon O'Shine Remix) [FUTURE FAVORITE].mp3
Формат                           : MPEG Audio
Размер файла                     : 12,0 Мбайт
Продолжительность                : 5 м. 13 с.
Режим общего битрейта            : Постоянный
Общий поток                      : 320 Кбит/сек
Альбом                           : A State Of Trance 686 (2014-10-23)
Трек                             : Winter (Simon O'Shine Remix) [FUTURE FAVORITE]
Трек/Положение                   : 27
Исполнитель                      : Bobina
Жанр                             :
Дата записи                      : 2014
Примечание                       : 320kbps
Аудио
Формат                           : MPEG Audio
Версия формата                   : Version 1
Профиль формата                  : Layer 3
Продолжительность                : 5 м. 13 с.
Вид битрейта                     : Постоянный
Битрейт                          : 320 Кбит/сек
Каналы                           : 2 канала
Частота                          : 44,1 КГц
Метод сжатия                     : С потерями
Размер потока                    : 12,0 Мбайт (100%)
Общее
Полное имя                       : D:\Armin van Buuren - A State of Trance 686 (2014)\28. ReOrder & Standerwick pres. SkyPatrol - Skyres.mp3
Формат                           : MPEG Audio
Размер файла                     : 8,11 Мбайт
Продолжительность                : 3 м. 32 с.
Режим общего битрейта            : Постоянный
Общий поток                      : 320 Кбит/сек
Альбом                           : A State Of Trance 686 (2014-10-23)
Трек                             : Skyres
Трек/Положение                   : 28
Исполнитель                      : ReOrder & Standerwick pres. SkyPatrol
Жанр                             :
Дата записи                      : 2014
Примечание                       : 320kbps
Аудио
Формат                           : MPEG Audio
Версия формата                   : Version 1
Профиль формата                  : Layer 3
Продолжительность                : 3 м. 32 с.
Вид битрейта                     : Постоянный
Битрейт                          : 320 Кбит/сек
Каналы                           : 2 канала
Частота                          : 44,1 КГц
Метод сжатия                     : С потерями
Размер потока                    : 8,10 Мбайт (100%)
Общее
Полное имя                       : D:\Armin van Buuren - A State of Trance 686 (2014)\29. Allen Watts - Recharge.mp3
Формат                           : MPEG Audio
Размер файла                     : 10,0 Мбайт
Продолжительность                : 4 м. 22 с.
Режим общего битрейта            : Постоянный
Общий поток                      : 320 Кбит/сек
Альбом                           : A State Of Trance 686 (2014-10-23)
Трек                             : Recharge
Трек/Положение                   : 29
Исполнитель                      : Allen Watts
Жанр                             :
Дата записи                      : 2014
Примечание                       : 320kbps
Аудио
Формат                           : MPEG Audio
Версия формата                   : Version 1
Профиль формата                  : Layer 3
Продолжительность                : 4 м. 23 с.
Вид битрейта                     : Постоянный
Битрейт                          : 320 Кбит/сек
Каналы                           : 2 канала
Частота                          : 44,1 КГц
Метод сжатия                     : С потерями
Размер потока                    : 10,0 Мбайт (100%)
Общее
Полное имя                       : D:\Armin van Buuren - A State of Trance 686 (2014)\30. Orkidea - Purity (Sneijder Remix).mp3
Формат                           : MPEG Audio
Размер файла                     : 9,74 Мбайт
Продолжительность                : 4 м. 15 с.
Режим общего битрейта            : Постоянный
Общий поток                      : 320 Кбит/сек
Альбом                           : A State Of Trance 686 (2014-10-23)
Трек                             : Purity (Sneijder Remix)
Трек/Положение                   : 30
Исполнитель                      : Orkidea
Жанр                             :
Дата записи                      : 2014
Примечание                       : 320kbps
Аудио
Формат                           : MPEG Audio
Версия формата                   : Version 1
Профиль формата                  : Layer 3
Продолжительность                : 4 м. 15 с.
Вид битрейта                     : Постоянный
Битрейт                          : 320 Кбит/сек
Каналы                           : 2 канала
Частота                          : 44,1 КГц
Метод сжатия                     : С потерями
Размер потока                    : 9,73 Мбайт (100%)
Общее
Полное имя                       : D:\Armin van Buuren - A State of Trance 686 (2014)\31. Neelix - Coloured Light (Simon Patterson Remix).mp3
Формат                           : MPEG Audio
Размер файла                     : 12,3 Мбайт
Продолжительность                : 5 м. 22 с.
Режим общего битрейта            : Постоянный
Общий поток                      : 320 Кбит/сек
Альбом                           : A State Of Trance 686 (2014-10-23)
Трек                             : Coloured Light (Simon Patterson Remix)
Трек/Положение                   : 31
Исполнитель                      : Neelix
Жанр                             :
Дата записи                      : 2014
Примечание                       : 320kbps
Аудио
Формат                           : MPEG Audio
Версия формата                   : Version 1
Профиль формата                  : Layer 3
Продолжительность                : 5 м. 22 с.
Вид битрейта                     : Постоянный
Битрейт                          : 320 Кбит/сек
Каналы                           : 2 канала
Частота                          : 44,1 КГц
Метод сжатия                     : С потерями
Размер потока                    : 12,3 Мбайт (100%)
Общее
Полное имя                       : D:\Armin van Buuren - A State of Trance 686 (2014)\32. Shmuel & Choopie - Sunrising [ASOT Radio Classic].mp3
Формат                           : MPEG Audio
Размер файла                     : 11,9 Мбайт
Продолжительность                : 5 м. 10 с.
Режим общего битрейта            : Постоянный
Общий поток                      : 320 Кбит/сек
Альбом                           : A State Of Trance 686 (2014-10-23)
Трек                             : Sunrising [ASOT Radio Classic]
Трек/Положение                   : 32
Исполнитель                      : Shmuel & Choopie
Жанр                             :
Дата записи                      : 2014
Примечание                       : 320kbps
Аудио
Формат                           : MPEG Audio
Версия формата                   : Version 1
Профиль формата                  : Layer 3
Продолжительность                : 5 м. 10 с.
Вид битрейта                     : Постоянный
Битрейт                          : 320 Кбит/сек
Каналы                           : 2 канала
Частота                          : 44,1 КГц
Метод сжатия                     : С потерями
Размер потока                    : 11,9 Мбайт (100%)
Общее
Полное имя                       : D:\Armin van Buuren - A State of Trance 686 (2014)\33. A State Of Trance - Outro.mp3
Формат                           : MPEG Audio
Размер файла                     : 1,25 Мбайт
Продолжительность                : 32 с.
Режим общего битрейта            : Постоянный
Общий поток                      : 320 Кбит/сек
Альбом                           : A State Of Trance 686 (2014-10-23)
Трек                             : Outro
Трек/Положение                   : 33
Исполнитель                      : A State Of Trance
Жанр                             :
Дата записи                      : 2014
Примечание                       : 320kbps
Аудио
Формат                           : MPEG Audio
Версия формата                   : Version 1
Профиль формата                  : Layer 3
Продолжительность                : 32 с.
Вид битрейта                     : Постоянный
Битрейт                          : 320 Кбит/сек
Каналы                           : 2 канала
Частота                          : 44,1 КГц
Метод сжатия                     : С потерями
Размер потока                    : 1,24 Мбайт (99%)
--Время раздачи: До пяти скачавших.
Яндекс.Метрика
Рейтинг@Mail.ru