Голос. Сезон №2. Выпуск №11 (2013.11.15) HDTV [H.264/1080i]

 

Создавать темы 16-Ноя-2013 05:42

Новое- Голос. Сезон №2. Выпуск №11 (2013.11.15) HDTV [H.264/1080i] - Режиссер / Телекомпания: Первый канал HD
Русское название: Голос
Год выпуска: 2013
Жанр: ТВ-Шоу, развлекательный
Описание:
В эфире Первого канала – долгожданное продолжение музыкального проекта "Голос", ставшего одним из самых ярких явлений на отечественном телевидении в прошлом сезоне.
Наставники те же: Александр Градский, Пелагея, Леонид Агутин и Дмитрий Билан.
Тот же ведущий – Дмитрий Нагиев. И те же 150 вокалистов, выстроившихся в очередь на фирменные "слепые прослушивания". Позади – предварительный отбор, во время которого из почти 11 тысяч желающих нужно было выбрать полторы сотни самых незаурядных исполнителей. Теперь слово за наставниками, которые готовы набирать свои команды.
В сравнении с первым сезоном в шоу внесено несколько изменений.
Команды
Изначально в каждой команде будет по 14 вокалистов.
Похищения
На стадии битв наставники смогут "похитить" двух вокалистов у других наставников.
Битвы и Нокауты
Теперь битв, в которых участники одной команды будут соревноваться друг с другом на выбывание, станет больше.
В конечном итоге в каждой из команд останется только по 6 человек. И тогда придет черед "живых концертов" со зрительским голосованием. По итогам первых двух проект покинут 16 слабейших вокалистов. В полуфинале из 8 отсеются еще четверо. В финале определится сильнейший!
Ведущий: Дмитрий Нагиев
Продолжительность: ~ 01:50:39
Видеокодек: MPEG-TS(AVC)
Битрейт видео: ~8559 kb/s
Размер кадра: 1920 x 1080
Качество видео: HDTV
Аудиокодек: MP2, 2ch.
Битрейт аудио: 192 kb/s

MediaInfo

Формат : MPEG-TS
Размер файла : 7,12 Гбайт
Продолжительность : 1 ч. 50 м.
Общий поток : 9207 Кбит/сек
Видео
Идентификатор : 305 (0x131)
Идентификатор меню : 1 (0x1)
Формат : AVC
Формат/Информация : Advanced Video Codec
Профиль формата : [url=mailto:[email protected]][email protected][/url]
Параметр CABAC формата : Да
Параметр ReFrames формата : 3 кадра
Идентификатор кодека : 27
Продолжительность : 1 ч. 50 м.
Битрейт : 8559 Кбит/сек
Ширина : 1920 пикселей
Высота : 1080 пикселей
Соотношение сторон : 16:9
Частота кадров : 25,000 кадров/сек
Стандарт вещания : Component
Цветовое пространство : YUV
Субдискретизация насыщенности : 4:2:0
Битовая глубина : 8 бит
Тип развёртки : Чересстрочная
Порядок развёртки : Верхнее поле первое
Бит/(Пиксели*Кадры) : 0.165
Размер потока : 6,62 Гбайт (93%)
Основные цвета : BT.709-5, BT.1361, IEC 61966-2-4, SMPTE RP177
Характеристики трансфера : BT.709-5, BT.1361
Коэффициенты матрицы : BT.709-5, BT.1361, IEC 61966-2-4 709, SMPTE RP177
Аудио
Идентификатор : 405 (0x195)
Идентификатор меню : 1 (0x1)
Формат : MPEG Audio
Версия формата : Version 1
Профиль формата : Layer 2
Идентификатор кодека : 3
Продолжительность : 1 ч. 50 м.
Вид битрейта : Постоянный
Битрейт : 192 Кбит/сек
Каналы : 2 канала
Частота : 48,0 КГц
Метод сжатия : С потерями
Размер потока : 152 Мбайт (2%)
Язык : English
Скриншоты:
Время раздачи: 24/7. До первых 5 скачавших.
Яндекс.Метрика
Рейтинг@Mail.ru