Bvdub (Brock Van Wey) - 11 Albums & EP (2008 - 2014)[FLAC|Lossless] <Ambient, Downtempo, Abstract, Dub Techno>

 

Создавать темы 15-Дек-2014 23:05

-Bvdub (Brock Van Wey) - Albums (2008 - 2014)- Год: 2008 - 2014
Жанр: Ambient, Downtempo, Abstract, Dub Techno
Продолжительность: 17:36:25
Кодек: FLAC
Битрейт: Lossless-

Треклист&#58;

bvdub - The Art Of Dying Alone (2009)-- Год: 2009
Лейбл: Glacial Movements Records
Каталог#: GM008
Тип рипа: tracks+.cue+log
Прoдолжительность: 01:18:09


01. Descent To The End (08:09)
02. Nothing From No One (08:48)
03. To Finally Forget It All (21:20)
04. No More Reasons Not To Fall (11:20)
05. No One Will Ever Find You Here (09:19)
06. The Art Of Dying Alone (19:13)

Отчет EAC&#58;

Exact Audio Copy V1.0 beta 3 from 29. August 2011
EAC extraction logfile from 9. February 2013, 11:31
bvdub / The Art Of Dying Alone
Used drive  : ASUS    DRW-20B1LT   Adapter: 0  ID: 1
Read mode               : Secure
Utilize accurate stream : Yes
Defeat audio cache      : Yes
Make use of C2 pointers : No
Read offset correction                      : 6
Overread into Lead-In and Lead-Out          : No
Fill up missing offset samples with silence : Yes
Delete leading and trailing silent blocks   : No
Null samples used in CRC calculations       : Yes
Used interface                              : Native Win32 interface for Win NT & 2000
Gap handling                                : Appended to previous track
Used output format              : User Defined Encoder
Selected bitrate                : 1024 kBit/s
Quality                         : High
Add ID3 tag                     : No
Command line compressor         : C:\Program Files (x86)\FLAC\flac.exe
Additional command line options : -8 -V -T "ARTIST=%artist%" -T "TITLE=%title%" -T "ALBUM=%albumtitle%" -T "DATE=%year%" -T "TRACKNUMBER=%tracknr1%" -T "GENRE=%genre%" -T "DISCNUMBER=%cdnumber%" -T "TOTALDISCS=%totalcds%" -T "TOTALTRACKS=%numtracks%" %source% -o %dest%
TOC of The extracted CD
     Track |   Start  |  Length  | Start sector | End sector
    ---------------------------------------------------------
        1  |  0:00.00 |  8:08.54 |         0    |    36653
        2  |  8:08.54 |  8:48.00 |     36654    |    76253
        3  | 16:56.54 | 21:20.00 |     76254    |   172253
        4  | 38:16.54 | 11:19.47 |    172254    |   223225
        5  | 49:36.26 |  9:18.40 |    223226    |   265115
        6  | 58:54.66 | 19:13.06 |    265116    |   351596
Track  1
     Filename U:\bvdub - The Art Of Dying Alone\01_BvDub_Descent_To_The_End.wav
     Pre-gap length  0:00:02.00
     Peak level 80.2 %
     Extraction speed 2.0 X
     Track quality 99.9 %
     Test CRC 8EB8D57D
     Copy CRC 8EB8D57D
     Accurately ripped (confidence 6)  [F93042E6]  (AR v1)
     Copy OK
Track  2
     Filename U:\bvdub - The Art Of Dying Alone\02_BvDub_Nothing_From_No_One.wav
     Peak level 81.6 %
     Extraction speed 2.8 X
     Track quality 100.0 %
     Test CRC 7F0CD4C6
     Copy CRC 7F0CD4C6
     Accurately ripped (confidence 6)  [7B56264E]  (AR v1)
     Copy OK
Track  3
     Filename U:\bvdub - The Art Of Dying Alone\03_BvDub_To_Finally_Forget_It_All.wav
     Peak level 72.5 %
     Extraction speed 3.5 X
     Track quality 100.0 %
     Test CRC 7E7113F4
     Copy CRC 7E7113F4
     Accurately ripped (confidence 6)  [98F6C0D0]  (AR v1)
     Copy OK
Track  4
     Filename U:\bvdub - The Art Of Dying Alone\04_BvDub_No_More_Reasons_Not_To_Fall.wav
     Peak level 66.1 %
     Extraction speed 4.0 X
     Track quality 100.0 %
     Test CRC 04B1A07A
     Copy CRC 04B1A07A
     Accurately ripped (confidence 6)  [BD3AF4C5]  (AR v1)
     Copy OK
Track  5
     Filename U:\bvdub - The Art Of Dying Alone\05_BvDub_No_One_Will_Ever_Find_You_Here.wav
     Peak level 70.8 %
     Extraction speed 4.2 X
     Track quality 100.0 %
     Test CRC DEA6E48B
     Copy CRC DEA6E48B
     Accurately ripped (confidence 6)  [634E3A85]  (AR v1)
     Copy OK
Track  6
     Filename U:\bvdub - The Art Of Dying Alone\06_BvDub_The_Art_Of_Dying_Alone.wav
     Peak level 81.8 %
     Extraction speed 4.8 X
     Track quality 100.0 %
     Test CRC 1B6A4646
     Copy CRC 1B6A4646
     Accurately ripped (confidence 5)  [8075209D]  (AR v1)
     Copy OK
All tracks accurately ripped
No errors occurred
End of status report
==== Log checksum D54C8CDF3909895CC6DB7F196355B3D39F13D8B056D222DA1A7CA7681DE49C63 ====

Отчет auCDtect Task manager&#58;

-----------------------
DON'T MODIFY THIS FILE
-----------------------
PERFORMER: auCDtect Task Manager, ver. 1.6.0 RC1 build 1.6.0.1
Copyright (c) 2008-2010 y-soft. All rights reserved
http://y-soft.org
ANALYZER: auCDtect: CD records authenticity detector, version 0.8.2
Copyright (c) 2004 Oleg Berngardt. All rights reserved.
Copyright (c) 2004 Alexander Djourik. All rights reserved.
FILE: 06 - The Art Of Dying Alone.flac
  Size: 105405376 Hash: 37C3371594C9681483E70D8C16DE0A9F Accuracy: -m0
  Conclusion: CDDA 99%
  Signature: C9AEA5455FB2504B66E9AF60008D8856DAC09A98
FILE: 05 - No One Will Ever Find You Here.flac
  Size: 59815081 Hash: 3042BFBCCDBDE9F2A4D70930FE41194A Accuracy: -m0
  Conclusion: CDDA 100%
  Signature: D6723A9C464852EFE0AD081145E16E36540A3971
FILE: 04 - No More Reasons Not To Fall.flac
  Size: 67974349 Hash: 63030B2C4100B67A0C9B573E71BE66C6 Accuracy: -m0
  Conclusion: CDDA 100%
  Signature: 2662CCD2C23D3879B2E95C8309A3499BE8566B29
FILE: 03 - To Finally Forget It All.flac
  Size: 121624142 Hash: CE30320B2BCD2076AC8C9B9D4A0FD4F1 Accuracy: -m0
  Conclusion: CDDA 100%
  Signature: CBFC033F12FBC75A0F506746C4B6273F9172A7B0
FILE: 02 - Nothing From No One.flac
  Size: 49780278 Hash: FECCE2BCC9C15FE5B590EAACF0522A97 Accuracy: -m0
  Conclusion: CDDA 100%
  Signature: 4B907E8673C584BE297B2069DE77C7F6F1CF2909
FILE: 01 - Descent To The End.flac
  Size: 43616550 Hash: 5A30A4969DBC080E3ABCD3C9EF613DA7 Accuracy: -m0
  Conclusion: CDDA 100%
  Signature: CDFC7576815FBBAF47AD2B61BCD64FEACE17EA8E

Содержание индексной карты .Cue&#58;

PERFORMER "bvdub"
TITLE "The Art Of Dying Alone"
REM DATE 2010
REM DISCNUMBER 1
REM TOTALDISCS 1
REM GENRE "Ambient"
FILE "01 - Descent To The End.flac" WAVE
  TRACK 01 AUDIO
    PERFORMER "bvdub"
    TITLE "Descent To The End"
    INDEX 01 00:00:00
FILE "02 - Nothing From No One.flac" WAVE
  TRACK 02 AUDIO
    PERFORMER "bvdub"
    TITLE "Nothing From No One"
    INDEX 01 00:00:00
FILE "03 - To Finally Forget It All.flac" WAVE
  TRACK 03 AUDIO
    PERFORMER "bvdub"
    TITLE "To Finally Forget It All"
    INDEX 01 00:00:00
FILE "04 - No More Reasons Not To Fall.flac" WAVE
  TRACK 04 AUDIO
    PERFORMER "bvdub"
    TITLE "No More Reasons Not To Fall"
    INDEX 01 00:00:00
FILE "05 - No One Will Ever Find You Here.flac" WAVE
  TRACK 05 AUDIO
    PERFORMER "bvdub"
    TITLE "No One Will Ever Find You Here"
    INDEX 01 00:00:00
FILE "06 - The Art Of Dying Alone.flac" WAVE
  TRACK 06 AUDIO
    PERFORMER "bvdub"
    TITLE "The Art Of Dying Alone"
    INDEX 01 00:00:00
bvdub - Tribes At The Temple Of Silence (2011)-- Год: 2011
Лейбл: Home Normal
Каталог#: home n023
Тип рипа: tracks+.cue+log
Прoдолжительность: 01:19:08
Трeклист:

01. A Quiet Doorway Opens (11:04)
02. The Past Disappears (11:29)
03. Sanctuary (14:24)
04. These Walls Will Always Remember (For Dani) (08:01)
05. Morning Rituals (15:12)
06. We Move As One (10:40)
07. Towers Rise To The Sky (08:18)

Отчет EAC&#58;

Exact Audio Copy V1.0 beta 3 from 29. August 2011
EAC extraction logfile from 19. April 2012, 9:59
Bvdub / Tribes At The Temple Of Silence
Used drive  : ASUS    DRW-20B1LT   Adapter: 0  ID: 1
Read mode               : Secure
Utilize accurate stream : Yes
Defeat audio cache      : Yes
Make use of C2 pointers : No
Read offset correction                      : 6
Overread into Lead-In and Lead-Out          : No
Fill up missing offset samples with silence : Yes
Delete leading and trailing silent blocks   : No
Null samples used in CRC calculations       : Yes
Used interface                              : Native Win32 interface for Win NT & 2000
Gap handling                                : Appended to previous track
Used output format              : User Defined Encoder
Selected bitrate                : 1024 kBit/s
Quality                         : High
Add ID3 tag                     : No
Command line compressor         : C:\Program Files (x86)\FLAC\flac.exe
Additional command line options : -8 -V -T "ARTIST=%artist%" -T "TITLE=%title%" -T "ALBUM=%albumtitle%" -T "DATE=%year%" -T "TRACKNUMBER=%tracknr1%" -T "GENRE=%genre%" -T "DISCNUMBER=%cdnumber%" -T "TOTALDISCS=%totalcds%" -T "TOTALTRACKS=%numtracks%" %source% -o %dest%
TOC of The extracted CD
     Track |   Start  |  Length  | Start sector | End sector
    ---------------------------------------------------------
        1  |  0:00.00 | 11:04.23 |         0    |    49822
        2  | 11:04.23 | 11:29.37 |     49823    |   101534
        3  | 22:33.60 | 14:24.00 |    101535    |   166334
        4  | 36:57.60 |  8:00.74 |    166335    |   202408
        5  | 44:58.59 | 15:12.01 |    202409    |   270809
        6  | 60:10.60 | 10:40.25 |    270810    |   318834
        7  | 70:51.10 |  8:17.65 |    318835    |   356174
Track  1
     Filename U:\Bvdub – Tribes At The Temple Of Silence\01_Bvdub_A_Quiet_Doorway_Opens.wav
     Pre-gap length  0:00:02.00
     Peak level 84.0 %
     Extraction speed 6.3 X
     Track quality 99.9 %
     Test CRC 07EBF4E8
     Copy CRC 07EBF4E8
     Accurately ripped (confidence 2)  [BD6C9A11]  (AR v2)
     Copy OK
Track  2
     Filename U:\Bvdub – Tribes At The Temple Of Silence\02_Bvdub_The_Past_Disappears.wav
     Peak level 87.8 %
     Extraction speed 8.2 X
     Track quality 100.0 %
     Test CRC F00623BC
     Copy CRC F00623BC
     Accurately ripped (confidence 2)  [9CF9072D]  (AR v2)
     Copy OK
Track  3
     Filename U:\Bvdub – Tribes At The Temple Of Silence\03_Bvdub_Sanctuary.wav
     Peak level 86.0 %
     Extraction speed 9.6 X
     Track quality 100.0 %
     Test CRC 1D83A8FD
     Copy CRC 1D83A8FD
     Accurately ripped (confidence 2)  [75CC0306]  (AR v2)
     Copy OK
Track  4
     Filename U:\Bvdub – Tribes At The Temple Of Silence\04_Bvdub_These_Walls_Will_Always_Remember_(For_Dani).wav
     Peak level 87.1 %
     Extraction speed 10.2 X
     Track quality 100.0 %
     Test CRC FDAB2DC5
     Copy CRC FDAB2DC5
     Accurately ripped (confidence 2)  [588B1BB9]  (AR v2)
     Copy OK
Track  5
     Filename U:\Bvdub – Tribes At The Temple Of Silence\05_Bvdub_Morning_Rituals.wav
     Peak level 71.9 %
     Extraction speed 10.9 X
     Track quality 99.9 %
     Test CRC C5B63A69
     Copy CRC C5B63A69
     Accurately ripped (confidence 2)  [97C08C38]  (AR v2)
     Copy OK
Track  6
     Filename U:\Bvdub – Tribes At The Temple Of Silence\06_Bvdub_We_Move_As_One.wav
     Peak level 95.2 %
     Extraction speed 11.0 X
     Track quality 99.9 %
     Test CRC C863B380
     Copy CRC C863B380
     Accurately ripped (confidence 2)  [1F4129CE]  (AR v2)
     Copy OK
Track  7
     Filename U:\Bvdub – Tribes At The Temple Of Silence\07_Bvdub_Towers_Rise_To_The_Sky.wav
     Peak level 61.4 %
     Extraction speed 4.1 X
     Track quality 99.8 %
     Test CRC 8BB08C87
     Copy CRC 8BB08C87
     Accurately ripped (confidence 2)  [1B724C1D]  (AR v2)
     Copy OK
All tracks accurately ripped
No errors occurred
End of status report
==== Log checksum C0DE65531A831E43AEBA1C0BE8CBBAA180F112B2D1AE860ADEB212EE44BE38EF ====

Отчет auCDtect Task manager&#58;

-----------------------
DON'T MODIFY THIS FILE
-----------------------
PERFORMER: auCDtect Task Manager, ver. 1.6.0 RC1 build 1.6.0.1
Copyright (c) 2008-2010 y-soft. All rights reserved
http://y-soft.org
ANALYZER: auCDtect: CD records authenticity detector, version 0.8.2
Copyright (c) 2004 Oleg Berngardt. All rights reserved.
Copyright (c) 2004 Alexander Djourik. All rights reserved.
FILE: 07 - Towers Rise To The Sky.flac
  Size: 47773427 Hash: C039B817133A4DCC112B64108C2296FD Accuracy: -m0
  Conclusion: CDDA 100%
  Signature: 438D0E76678ED747F58B701769BEC119398CA9E9
FILE: 06 - We Move As One.flac
  Size: 59311950 Hash: 6A8B0F7997CE7A42CA58FB28845A5A7B Accuracy: -m0
  Conclusion: CDDA 100%
  Signature: 13B98954DF32B0BD2FA4C5651735429D3823697B
FILE: 05 - Morning Rituals.flac
  Size: 78457172 Hash: 283A4358FEEF1EB51CF6881927E09EAD Accuracy: -m0
  Conclusion: CDDA 100%
  Signature: BBB924836362ADE4DC7E814B7B9DB9D15F6BC94F
FILE: 04 - These Walls Will Always Remember (For Dani).flac
  Size: 44459213 Hash: CC0DAE23AAABE1DD26C0B6EB8A67EE6E Accuracy: -m0
  Conclusion: CDDA 100%
  Signature: 0830B8B45AC7A7601F1BA8446AAD3A746769A756
FILE: 03 - Sanctuary.flac
  Size: 70782245 Hash: B086F31A31D195E825CB63B631117148 Accuracy: -m0
  Conclusion: CDDA 100%
  Signature: 86326CB4044109FBE1119E461E981D98410DB680
FILE: 02 - The Past Disappears.flac
  Size: 65154156 Hash: 5665450FBB0C938DEE867BE097B23C79 Accuracy: -m0
  Conclusion: CDDA 100%
  Signature: EC40771D7AC6D24A0B4C90E694AA29F2100562F4
FILE: 01 - A Quiet Doorway Opens.flac
  Size: 72530857 Hash: AB423140A5DCCC63CB79D73C8FB9A8A1 Accuracy: -m0
  Conclusion: CDDA 100%
  Signature: F13885BB1D349253C5C20D5B7F65DBBF3DD2AC53

Содержание индексной карты .Cue&#58;

REM COMMENT "CUETools generated dummy CUE sheet"
PERFORMER "Bvdub"
TITLE "Tribes At The Temple Of Silence"
REM DATE 2011
REM DISCNUMBER 1
REM TOTALDISCS 1
REM GENRE "Ambient"
FILE "01 - A Quiet Doorway Opens.flac" WAVE
  TRACK 01 AUDIO
    PERFORMER "Bvdub"
    TITLE "A Quiet Doorway Opens"
    INDEX 01 00:00:00
FILE "02 - The Past Disappears.flac" WAVE
  TRACK 02 AUDIO
    PERFORMER "Bvdub"
    TITLE "The Past Disappears"
    INDEX 01 00:00:00
FILE "03 - Sanctuary.flac" WAVE
  TRACK 03 AUDIO
    PERFORMER "Bvdub"
    TITLE "Sanctuary"
    INDEX 01 00:00:00
FILE "04 - These Walls Will Always Remember (For Dani).flac" WAVE
  TRACK 04 AUDIO
    PERFORMER "Bvdub"
    TITLE "These Walls Will Always Remember (For Dani)"
    INDEX 01 00:00:00
FILE "05 - Morning Rituals.flac" WAVE
  TRACK 05 AUDIO
    PERFORMER "Bvdub"
    TITLE "Morning Rituals"
    INDEX 01 00:00:00
FILE "06 - We Move As One.flac" WAVE
  TRACK 06 AUDIO
    PERFORMER "Bvdub"
    TITLE "We Move As One"
    INDEX 01 00:00:00
FILE "07 - Towers Rise To The Sky.flac" WAVE
  TRACK 07 AUDIO
    PERFORMER "Bvdub"
    TITLE "Towers Rise To The Sky"
    INDEX 01 00:00:00
bvdub - All Is Forgiven (2012)-- Год: 2012
Лейбл: n5MD
Каталог#: CATMD205
Тип рипа: tracks+.cue+log
Прoдолжительность: 01:17:26
Трeклист:

01. All Is Forgiven (19:04)
02. Today He Felt Life (31:32)
03. Peonies Fall For Kings (26:50)

Отчет EAC&#58;

Exact Audio Copy V1.0 beta 3 from 29. August 2011
EAC extraction logfile from 8. November 2012, 20:13
bvdub / All Is Forgiven
Used drive  : HL-DT-STDVDRAM GP40LB10   Adapter: 1  ID: 0
Read mode               : Secure
Utilize accurate stream : Yes
Defeat audio cache      : Yes
Make use of C2 pointers : No
Read offset correction                      : 6
Overread into Lead-In and Lead-Out          : No
Fill up missing offset samples with silence : Yes
Delete leading and trailing silent blocks   : No
Null samples used in CRC calculations       : Yes
Used interface                              : Native Win32 interface for Win NT & 2000
Gap handling                                : Appended to previous track
Used output format              : User Defined Encoder
Selected bitrate                : 1024 kBit/s
Quality                         : High
Add ID3 tag                     : No
Command line compressor         : C:\Program Files (x86)\Exact Audio Copy\FLAC\FLAC.EXE
Additional command line options : -8 -V -T "ARTIST=%artist%" -T "TITLE=%title%" -T "ALBUM=%albumtitle%" -T "DATE=%year%" -T "TRACKNUMBER=%tracknr%" -T "GENRE=%genre%" -T "PERFORMER=%albuminterpret%" -T "COMPOSER=%composer%" %haslyrics%--tag-from-file=LYRICS="%lyricsfile%"%haslyrics% -T "ALBUMARTIST=%albumartist%" -T "DISCNUMBER=%cdnumber%" -T "TOTALDISCS=%totalcds%" -T "TOTALTRACKS=%numtracks%" -T "COMMENT=%comment%" %source% -o %dest%
TOC of The extracted CD
     Track |   Start  |  Length  | Start sector | End sector
    ---------------------------------------------------------
        1  |  0:00.00 | 19:04.30 |         0    |    85829
        2  | 19:04.30 | 31:31.52 |     85830    |   227706
        3  | 50:36.07 | 26:50.14 |    227707    |   348470
Track  1
     Filename I:\Music3\bvdub - All Is Forgiven (2012) FLAC\01 - All is Forgiven.wav
     Pre-gap length  0:00:02.00
     Peak level 98.9 %
     Extraction speed 1.6 X
     Track quality 99.9 %
     Test CRC 6D6D7378
     Copy CRC 6D6D7378
     Track not present in AccurateRip database
     Copy OK
Track  2
     Filename I:\Music3\bvdub - All Is Forgiven (2012) FLAC\02 - Today He Felt Life.wav
     Peak level 98.9 %
     Extraction speed 2.3 X
     Track quality 100.0 %
     Test CRC 782A2661
     Copy CRC 782A2661
     Track not present in AccurateRip database
     Copy OK
Track  3
     Filename I:\Music3\bvdub - All Is Forgiven (2012) FLAC\03 - Peonies Fall for Kings.wav
     Peak level 98.9 %
     Extraction speed 2.9 X
     Track quality 99.9 %
     Test CRC EEC03AB3
     Copy CRC EEC03AB3
     Track not present in AccurateRip database
     Copy OK
None of The tracks are present in The AccurateRip database
No errors occurred
End of status report
==== Log checksum 94E1B047E1AE8A2DEC54105C443596CECAC7276A0BA5E45C44263011CA8BDAF1 ====

Отчет auCDtect Task manager&#58;

-----------------------
DON'T MODIFY THIS FILE
-----------------------
PERFORMER: auCDtect Task Manager, ver. 1.6.0 RC1 build 1.6.0.1
Copyright (c) 2008-2010 y-soft. All rights reserved
http://y-soft.org
ANALYZER: auCDtect: CD records authenticity detector, version 0.8.2
Copyright (c) 2004 Oleg Berngardt. All rights reserved.
Copyright (c) 2004 Alexander Djourik. All rights reserved.
FILE: 03 - Peonies Fall For Kings.flac
  Size: 169377467 Hash: 18DFF4CFEB6C8C980B2678D2277997E6 Accuracy: -m0
  Conclusion: CDDA 99%
  Signature: AC3017C544F3E555E51E465238BDB22FECA03F07
FILE: 02 - Today He Felt Life.flac
  Size: 203357966 Hash: D5BC489E53D6356B50A2BF216EDDED5A Accuracy: -m0
  Conclusion: CDDA 100%
  Signature: A3EB8B577F1E87807B749106F24697F881296E0D
FILE: 01 - All Is Forgiven.flac
  Size: 121331397 Hash: 4CEB8A6D28ECB041AC9AD4EABA95E613 Accuracy: -m0
  Conclusion: CDDA 99%
  Signature: FF7D5B455D0AF07CC8F2DAAAAE4A0ABBA3F2D781

Содержание индексной карты .Cue&#58;

PERFORMER "Bvdub"
TITLE "All Is Forgiven"
REM DATE 2012
REM DISCNUMBER 1
REM TOTALDISCS 1
REM GENRE "Ambient"
FILE "01 - All Is Forgiven.flac" WAVE
  TRACK 01 AUDIO
    PERFORMER "Bvdub"
    TITLE "All Is Forgiven"
    INDEX 01 00:00:00
FILE "02 - Today He Felt Life.flac" WAVE
  TRACK 02 AUDIO
    PERFORMER "Bvdub"
    TITLE "Today He Felt Life"
    INDEX 01 00:00:00
FILE "03 - Peonies Fall For Kings.flac" WAVE
  TRACK 03 AUDIO
    PERFORMER "Bvdub"
    TITLE "Peonies Fall For Kings"
    INDEX 01 00:00:00
Bvdub - Serenity (2012)-- Год: 2012
Лейбл: Darla Records
Каталог#: DRL252
Тип рипа: tracks+.cue+log
Прoдолжительность: 01:16:52
Трeклист:

01. Unity (10:45)
02. Beauty (14:26)
03. Energy (12:50)
04. Love (09:28)
05. Strength (17:33)
06. Serenity (11:50)

Отчет EAC&#58;

Exact Audio Copy V1.0 beta 3 from 29. August 2011
EAC extraction logfile from 16. March 2012, 19:09
bvdub / Serenity
Used drive  : PLEXTOR BD-R   PX-B920SA   Adapter: 3  ID: 1
Read mode               : Secure
Utilize accurate stream : Yes
Defeat audio cache      : Yes
Make use of C2 pointers : No
Read offset correction                      : 667
Overread into Lead-In and Lead-Out          : No
Fill up missing offset samples with silence : Yes
Delete leading and trailing silent blocks   : No
Null samples used in CRC calculations       : Yes
Used interface                              : Native Win32 interface for Win NT & 2000
Gap handling                                : Appended to previous track
Used output format              : User Defined Encoder
Selected bitrate                : 768 kBit/s
Quality                         : High
Add ID3 tag                     : No
Command line compressor         : C:\Program Files\Exact Audio Copy\FLAC\FLAC.EXE
Additional command line options : -6 -V -T "ARTIST=%artist%" -T "TITLE=%title%" -T "ALBUM=%albumtitle%" -T "DATE=%year%" -T "TRACKNUMBER=%tracknr%" -T "GENRE=%genre%" -T "COMMENT=%comment%" -T "BAND=%albuminterpret%" -T "ALBUMARTIST=%albuminterpret%" -T "COMPOSER=%composer%" %haslyrics%--tag-from-file=LYRICS="%lyricsfile%"%haslyrics% -T "DISCNUMBER=%cdnumber%" -T "TOTALDISCS=%totalcds%" -T "TOTALTRACKS=%numtracks%" %hascover%--picture="%coverfile%"%hascover% %source% -o %dest%
TOC of The extracted CD
     Track |   Start  |  Length  | Start sector | End sector
    ---------------------------------------------------------
        1  |  0:00.00 | 10:45.15 |         0    |    48389
        2  | 10:45.15 | 14:26.00 |     48390    |   113339
        3  | 25:11.15 | 12:50.00 |    113340    |   171089
        4  | 38:01.15 |  9:28.30 |    171090    |   213719
        5  | 47:29.45 | 17:32.71 |    213720    |   292690
        6  | 65:02.41 | 11:50.30 |    292691    |   345970
Track  1
     Filename D:\EAC\01 Unity.wav
     Pre-gap length  0:00:02.00
     Peak level 96.6 %
     Extraction speed 5.1 X
     Track quality 100.0 %
     Test CRC 66C0EB46
     Copy CRC 66C0EB46
     Track not present in AccurateRip database
     Copy OK
Track  2
     Filename D:\EAC\02 Beauty.wav
     Pre-gap length  0:00:02.00
     Peak level 96.6 %
     Extraction speed 6.3 X
     Track quality 100.0 %
     Test CRC 72C4C070
     Copy CRC 72C4C070
     Track not present in AccurateRip database
     Copy OK
Track  3
     Filename D:\EAC\03 Energy.wav
     Pre-gap length  0:00:02.00
     Peak level 96.6 %
     Extraction speed 7.4 X
     Track quality 100.0 %
     Test CRC 6F541E8E
     Copy CRC 6F541E8E
     Track not present in AccurateRip database
     Copy OK
Track  4
     Filename D:\EAC\04 Love.wav
     Pre-gap length  0:00:02.00
     Peak level 88.4 %
     Extraction speed 7.5 X
     Track quality 99.9 %
     Test CRC 7DA7644E
     Copy CRC 7DA7644E
     Track not present in AccurateRip database
     Copy OK
Track  5
     Filename D:\EAC\05 Strength.wav
     Pre-gap length  0:00:02.00
     Peak level 96.6 %
     Extraction speed 9.2 X
     Track quality 100.0 %
     Test CRC 647E82F7
     Copy CRC 647E82F7
     Track not present in AccurateRip database
     Copy OK
Track  6
     Filename D:\EAC\06 Serenity.wav
     Pre-gap length  0:00:02.00
     Peak level 96.6 %
     Extraction speed 6.0 X
     Track quality 100.0 %
     Test CRC DAF1EA39
     Copy CRC DAF1EA39
     Track not present in AccurateRip database
     Copy OK
None of The tracks are present in The AccurateRip database
No errors occurred
End of status report
---- CUETools DB Plugin V2.1.3
[CTDB TOCID: 5ur9JUWWEqp1IqMx1.hmUbSN3hA-] disk not present in database, Submit result: 5ur9JUWWEqp1IqMx1.hmUbSN3hA- has been uploaded
==== Log checksum 6FAEBD8D4D03EEE36D49CF3FE7CF3319C33EE6E650C07DE0287E5AF151BB26F2 ====

Отчет auCDtect Task manager&#58;

-----------------------
DON'T MODIFY THIS FILE
-----------------------
PERFORMER: auCDtect Task Manager, ver. 1.6.0 RC1 build 1.6.0.1
Copyright (c) 2008-2010 y-soft. All rights reserved
http://y-soft.org
ANALYZER: auCDtect: CD records authenticity detector, version 0.8.2
Copyright (c) 2004 Oleg Berngardt. All rights reserved.
Copyright (c) 2004 Alexander Djourik. All rights reserved.
FILE: 06 - Serenity.flac
  Size: 80366741 Hash: B411181954D8E9D3B7FCE952B315388B Accuracy: -m0
  Conclusion: CDDA 100%
  Signature: 77A92D7B2D22857C3C4CC11820691BB71B808984
FILE: 05 - Strength.flac
  Size: 113950118 Hash: D01D05376C4158A9175341EDFE0E3E4F Accuracy: -m0
  Conclusion: CDDA 99%
  Signature: CF1FC596F8CD6B381242A02AC16D4B8AEE549D3F
FILE: 04 - Love.flac
  Size: 64243838 Hash: D939839F977663ED243BFE000C6651E9 Accuracy: -m0
  Conclusion: CDDA 100%
  Signature: CDEAB9244823E0FD49500872D35A49C386D530E2
FILE: 03 - Energy.flac
  Size: 87537184 Hash: F8C68BF7C3D7F454E06130775701B019 Accuracy: -m0
  Conclusion: CDDA 100%
  Signature: 3BA2B326316ABE6C9C85597FE973DB370FD40413
FILE: 02 - Beauty.flac
  Size: 95577755 Hash: 5800C3EF1445BBD319E7049DB876D716 Accuracy: -m0
  Conclusion: CDDA 100%
  Signature: FFACB936BC453C2599091E26DD84467CDB587F68
FILE: 01 - Unity.flac
  Size: 62519706 Hash: 960E6C97187E18E0BEE01625E7F9ABE0 Accuracy: -m0
  Conclusion: CDDA 100%
  Signature: 18AC64BB275F5721515C585F5549E28A38718FE9

Содержание индексной карты .Cue&#58;

PERFORMER "Bvdub"
TITLE "Serenity"
REM DATE 2012
REM DISCNUMBER 1
REM TOTALDISCS 1
REM GENRE "Breaks, Techno, Ambient"
FILE "01 - Unity.flac" WAVE
  TRACK 01 AUDIO
    PERFORMER "Bvdub"
    TITLE "Unity"
    INDEX 01 00:00:00
  TRACK 02 AUDIO
    PERFORMER "Bvdub"
    TITLE "Beauty"
    INDEX 00 10:43:15
FILE "02 - Beauty.flac" WAVE
    INDEX 01 00:00:00
  TRACK 03 AUDIO
    PERFORMER "Bvdub"
    TITLE "Energy"
    INDEX 00 14:24:00
FILE "03 - Energy.flac" WAVE
    INDEX 01 00:00:00
  TRACK 04 AUDIO
    PERFORMER "Bvdub"
    TITLE "Love"
    INDEX 00 12:48:00
FILE "04 - Love.flac" WAVE
    INDEX 01 00:00:00
  TRACK 05 AUDIO
    PERFORMER "Bvdub"
    TITLE "Strength"
    INDEX 00 09:26:30
FILE "05 - Strength.flac" WAVE
    INDEX 01 00:00:00
  TRACK 06 AUDIO
    PERFORMER "Bvdub"
    TITLE "Serenity"
    INDEX 00 17:30:71
FILE "06 - Serenity.flac" WAVE
    INDEX 01 00:00:00
bvdub - The First Day (2012)-- Год: 2012
Лейбл: Home Normal
Каталог#: HOMEN031
Тип рипа: tracks+.cue+log
Прoдолжительность: 01:19:02
Трeклист:

01. Never In The Prison Of Their Stars (20:29)
02. The First Day (27:31)
03. While They Dremaed We Were There (20:38)
04. My Skies Cry Your Name (10:24)

Отчет EAC&#58;

Exact Audio Copy V1.0 beta 3 from 29. August 2011
EAC extraction logfile from 27. February 2012, 18:43
bvdub / The First Day
Used drive  : HL-DT-STDVDRAM GP40LB10   Adapter: 1  ID: 0
Read mode               : Secure
Utilize accurate stream : Yes
Defeat audio cache      : Yes
Make use of C2 pointers : No
Read offset correction                      : 6
Overread into Lead-In and Lead-Out          : No
Fill up missing offset samples with silence : Yes
Delete leading and trailing silent blocks   : No
Null samples used in CRC calculations       : Yes
Used interface                              : Native Win32 interface for Win NT & 2000
Gap handling                                : Appended to previous track
Used output format              : User Defined Encoder
Selected bitrate                : 768 kBit/s
Quality                         : High
Add ID3 tag                     : No
Command line compressor         : C:\Program Files (x86)\Exact Audio Copy\FLAC\FLAC.EXE
Additional command line options : -6 -V -T "ARTIST=%artist%" -T "TITLE=%title%" -T "ALBUM=%albumtitle%" -T "DATE=%year%" -T "TRACKNUMBER=%tracknr%" -T "GENRE=%genre%" -T "COMMENT=%comment%" -T "BAND=%albuminterpret%" -T "COMPOSER=%composer%" %haslyrics%--tag-from-file=LYRICS="%lyricsfile WAVE
  TRACK 01 AUDIO
    PERFORMER %"%haslyrics% -T "DISCNUMBER=%cdnumber%" -T "TOTALDISCS=%totalcds%" -T "TOTALTRACKS=%numtracks%" %hascover%--picture="%coverfile%"%hascover% %source% -o %dest%
TOC of The extracted CD
     Track |   Start  |  Length  | Start sector | End sector
    ---------------------------------------------------------
        1  |  0:00.00 | 20:28.60 |         0    |    92159
        2  | 20:28.60 | 27:31.15 |     92160    |   215999
        3  | 48:00.00 | 20:38.30 |    216000    |   308879
        4  | 68:38.30 | 10:24.00 |    308880    |   355679
Track  1
     Filename I:\Music3\bvdub - The First Day (2012) FLAC\01 - Never in The Prison of Their Stars.wav
     Pre-gap length  0:00:02.00
     Peak level 96.5 %
     Extraction speed 1.7 X
     Track quality 100.0 %
     Test CRC 5B8170BC
     Copy CRC 5B8170BC
     Track not present in AccurateRip database
     Copy OK
Track  2
     Filename I:\Music3\bvdub - The First Day (2012) FLAC\02 - The First Day.wav
     Peak level 92.8 %
     Extraction speed 2.3 X
     Track quality 100.0 %
     Test CRC DEC8A75F
     Copy CRC DEC8A75F
     Track not present in AccurateRip database
     Copy OK
Track  3
     Filename I:\Music3\bvdub - The First Day (2012) FLAC\03 - While They Dremaed We Were There.wav
     Peak level 96.5 %
     Extraction speed 2.8 X
     Track quality 100.0 %
     Test CRC 4977D587
     Copy CRC 4977D587
     Track not present in AccurateRip database
     Copy OK
Track  4
     Filename I:\Music3\bvdub - The First Day (2012) FLAC\04 - My Skies Cry Your Name.wav
     Peak level 93.9 %
     Extraction speed 3.0 X
     Track quality 100.0 %
     Test CRC 22B29571
     Copy CRC 22B29571
     Track not present in AccurateRip database
     Copy OK
None of The tracks are present in The AccurateRip database
No errors occurred
End of status report
==== Log checksum E3BF473C9CE1EFF7A1240C0F9333353D9DC79AD498596CC2DA40641A6F253248 ====

Отчет auCDtect Task manager&#58;

-----------------------
DON'T MODIFY THIS FILE
-----------------------
PERFORMER: auCDtect Task Manager, ver. 1.6.0 RC1 build 1.6.0.1
Copyright (c) 2008-2010 y-soft. All rights reserved
http://y-soft.org
ANALYZER: auCDtect: CD records authenticity detector, version 0.8.2
Copyright (c) 2004 Oleg Berngardt. All rights reserved.
Copyright (c) 2004 Alexander Djourik. All rights reserved.
FILE: 04 - My Skies Cry Your Name.flac
  Size: 52534379 Hash: C4F65A0A726540D04A19CB3D72BC33C3 Accuracy: -m0
  Conclusion: CDDA 100%
  Signature: 86572F5C589125190FC790DBC19315268768CF58
FILE: 03 - While They Dremaed We Were There.flac
  Size: 120827209 Hash: 0D29358AFB373B727ED969F69CB096BA Accuracy: -m0
  Conclusion: CDDA 100%
  Signature: 6A8862C133FBE00D14FB8E705649EE9E7896BC38
FILE: 02 - The First Day.flac
  Size: 170850336 Hash: 90824F8646D7BFCA152170520D8FB6E5 Accuracy: -m0
  Conclusion: CDDA 99%
  Signature: A68C2D6D67314F54DE74126CB0F3F04A77E5EC7A
FILE: 01 - Never In The Prison Of Their Stars.flac
  Size: 127304362 Hash: 06758E38CF06ACCFF8D27733F9D0D9F6 Accuracy: -m0
  Conclusion: CDDA 100%
  Signature: AEA49CD9F82E8F01CE7B615C3EC138C5CC882072

Содержание индексной карты .Cue&#58;

REM DATE 2012
REM DISCID 23128604
PERFORMER "Bvdub"
REM DISCNUMBER 1
REM TOTALDISCS 1
REM GENRE "Techno, Ambient"
TITLE "The First Day"
FILE "01 - Never In The Prison Of Their Stars.flac" WAVE
  TRACK 01 AUDIO
    TITLE "Never In The Prison Of Their Stars"
    PERFORMER "Bvdub"
    INDEX 01 00:00:00
FILE "02 - The First Day.flac" WAVE
  TRACK 02 AUDIO
    TITLE "The First Day"
    PERFORMER "Bvdub"
    INDEX 01 00:00:00
FILE "03 - While They Dremaed We Were There.flac" WAVE
  TRACK 03 AUDIO
    TITLE "While They Dremaed We Were There"
    PERFORMER "Bvdub"
    INDEX 01 00:00:00
FILE "04 - My Skies Cry Your Name.flac" WAVE
  TRACK 04 AUDIO
    TITLE "My Skies Cry Your Name"
    PERFORMER "Bvdub"
    INDEX 01 00:00:00
bvdub - A Careful Ecstasy (2013)-- Год: 2013
Лейбл: Darla Records
Каталог#: DRL263
Тип рипа: tracks+.cue
Прoдолжительность: 01:17:23
Трeклист:

01. Another Love (13:42)
02. My Hinami (12:15)
03. It Was For You, It Was For Us (07:04)
04. If I Had Been a Better Man (13:00)
05. Through The Lower Room, We Rise Higher (15:45)
06. A Careful Ecstasy (15:37)

Отчет auCDtect Task manager&#58;

-----------------------
DON'T MODIFY THIS FILE
-----------------------
PERFORMER: auCDtect Task Manager, ver. 1.6.0 RC1 build 1.6.0.1
Copyright (c) 2008-2010 y-soft. All rights reserved
http://y-soft.org
ANALYZER: auCDtect: CD records authenticity detector, version 0.8.2
Copyright (c) 2004 Oleg Berngardt. All rights reserved.
Copyright (c) 2004 Alexander Djourik. All rights reserved.
FILE: 06 - A Careful Ecstasy.flac
  Size: 101432876 Hash: 1CA1489CE69B52E9C4B4D0BF4249D73A Accuracy: -m0
  Conclusion: CDDA 100%
  Signature: 2C9CD9413076B574A50C9725B50E6147DEC6D4A4
FILE: 05 - Through The Lower Room, We Rise Higher.flac
  Size: 97206205 Hash: E37F3D13E82F218BF7E271FD55B6F671 Accuracy: -m0
  Conclusion: CDDA 100%
  Signature: 6CF48AA9897999CEE1AC08944D24194E50D33A91
FILE: 04 - If I Had Been a Better Man.flac
  Size: 85766028 Hash: 7DD8993424A175E2885B32E1A426D6D6 Accuracy: -m0
  Conclusion: CDDA 100%
  Signature: 15747CCF693D403FCC426121898ABAAA0F4C8ECD
FILE: 03 - It Was For You, It Was For Us.flac
  Size: 36214815 Hash: 177B826853060555676DEF9C2E831F39 Accuracy: -m0
  Conclusion: CDDA 100%
  Signature: 0088628D953DFED3E4FAEAABE68D261E75921B88
FILE: 02 - My Hinami.flac
  Size: 70410303 Hash: 2AE638C0418F85AAA037252794ED05E9 Accuracy: -m0
  Conclusion: CDDA 100%
  Signature: A6C4E582F887CECDBE6CC1126A44D233BCAC860A
FILE: 01 - Another Love.flac
  Size: 86473474 Hash: 066EC3FFA73C6D321BDA1872ED511C30 Accuracy: -m0
  Conclusion: CDDA 100%
  Signature: 67B9FDB04BE633F4BDF60955D837C65662DA5955

Содержание индексной карты .Cue&#58;

PERFORMER "bvdub"
TITLE "A Careful Ecstasy"
REM DATE 2013
REM DISCNUMBER 1
REM TOTALDISCS 1
REM GENRE "Techno, Ambient"
FILE "01 - Another Love.flac" WAVE
  TRACK 01 AUDIO
    PERFORMER "bvdub"
    TITLE "Another Love"
    INDEX 01 00:00:00
FILE "02 - My Hinami.flac" WAVE
  TRACK 02 AUDIO
    PERFORMER "bvdub"
    TITLE "My Hinami"
    INDEX 01 00:00:00
FILE "03 - It Was For You, It Was For Us.flac" WAVE
  TRACK 03 AUDIO
    PERFORMER "bvdub"
    TITLE "It Was For You, It Was For Us"
    INDEX 01 00:00:00
FILE "04 - If I Had Been a Better Man.flac" WAVE
  TRACK 04 AUDIO
    PERFORMER "bvdub"
    TITLE "If I Had Been a Better Man"
    INDEX 01 00:00:00
FILE "05 - Through The Lower Room, We Rise Higher.flac" WAVE
  TRACK 05 AUDIO
    PERFORMER "bvdub"
    TITLE "Through The Lower Room, We Rise Higher"
    INDEX 01 00:00:00
FILE "06 - A Careful Ecstasy.flac" WAVE
  TRACK 06 AUDIO
    PERFORMER "bvdub"
    TITLE "A Careful Ecstasy"
    INDEX 01 00:00:00
Bvdub - At Night The City Becomes The Sea (2013)-- Год: 2013
Лейбл: AY ‎– DQC-1000
Каталог#: DQC-1000
Тип рипа: tracks+.cue+log
Прoдолжительность: 01:18:10
Трeклист:

01. Never Meant You Any Harm (13:23)
02. (N)ever Existed (23:44)
03. Wasted Away In Your Waves (This Is Love) (19:56)
04. A Place To Call (15:47)
05. Waiting For A Friend (05:20)

Отчет EAC&#58;

Exact Audio Copy V1.0 beta 3 from 29. August 2011
EAC extraction logfile from 30. January 2013, 20:24
bvdub / At Night The City Becomes The Sea
Used drive  : HL-DT-STDVDRAM GP40LB10   Adapter: 1  ID: 0
Read mode               : Secure
Utilize accurate stream : Yes
Defeat audio cache      : Yes
Make use of C2 pointers : No
Read offset correction                      : 6
Overread into Lead-In and Lead-Out          : No
Fill up missing offset samples with silence : Yes
Delete leading and trailing silent blocks   : No
Null samples used in CRC calculations       : Yes
Used interface                              : Native Win32 interface for Win NT & 2000
Gap handling                                : Appended to previous track
Used output format              : User Defined Encoder
Selected bitrate                : 1024 kBit/s
Quality                         : High
Add ID3 tag                     : No
Command line compressor         : C:\Program Files (x86)\Exact Audio Copy\FLAC\FLAC.EXE
Additional command line options : -8 -V -T "ARTIST=%artist%" -T "TITLE=%title%" -T "ALBUM=%albumtitle%" -T "DATE=%year%" -T "TRACKNUMBER=%tracknr%" -T "GENRE=%genre%" -T "PERFORMER=%albuminterpret%" -T "COMPOSER=%composer%" %haslyrics%--tag-from-file=LYRICS="%lyricsfile%"%haslyrics% -T "ALBUMARTIST=%albumartist%" -T "DISCNUMBER=%cdnumber%" -T "TOTALDISCS=%totalcds%" -T "TOTALTRACKS=%numtracks%" -T "COMMENT=%comment%" %source% -o %dest%
TOC of The extracted CD
     Track |   Start  |  Length  | Start sector | End sector
    ---------------------------------------------------------
        1  |  0:00.00 | 13:22.68 |         0    |    60217
        2  | 13:22.68 | 23:44.00 |     60218    |   167017
        3  | 37:06.68 | 19:55.47 |    167018    |   256689
        4  | 57:02.40 | 15:47.35 |    256690    |   327749
        5  | 72:50.00 |  5:20.00 |    327750    |   351749
Track  1
     Filename I:\Music4\bvdub - At Night The City Becomes The Sea (2013) FLAC\01 - Never Meant You Any Harm.wav
     Pre-gap length  0:00:02.00
     Peak level 96.5 %
     Extraction speed 3.6 X
     Track quality 100.0 %
     Test CRC B38586F4
     Copy CRC B38586F4
     Track not present in AccurateRip database
     Copy OK
Track  2
     Filename I:\Music4\bvdub - At Night The City Becomes The Sea (2013) FLAC\02 - (N)ever Existed.wav
     Peak level 88.4 %
     Extraction speed 4.8 X
     Track quality 100.0 %
     Test CRC DAF3461C
     Copy CRC DAF3461C
     Track not present in AccurateRip database
     Copy OK
Track  3
     Filename I:\Music4\bvdub - At Night The City Becomes The Sea (2013) FLAC\03 - Wasted Away in Your Waves (This Is Love).wav
     Peak level 96.0 %
     Extraction speed 2.6 X
     Track quality 100.0 %
     Test CRC E8BFDADD
     Copy CRC E8BFDADD
     Track not present in AccurateRip database
     Copy OK
Track  4
     Filename I:\Music4\bvdub - At Night The City Becomes The Sea (2013) FLAC\04 - A Place to Call.wav
     Peak level 94.6 %
     Extraction speed 2.9 X
     Track quality 100.0 %
     Test CRC FDE449A6
     Copy CRC FDE449A6
     Track not present in AccurateRip database
     Copy OK
Track  5
     Filename I:\Music4\bvdub - At Night The City Becomes The Sea (2013) FLAC\05 - Waiting for a Friend.wav
     Peak level 83.4 %
     Extraction speed 2.8 X
     Track quality 100.0 %
     Test CRC F1D326E0
     Copy CRC F1D326E0
     Track not present in AccurateRip database
     Copy OK
None of The tracks are present in The AccurateRip database
No errors occurred
End of status report
==== Log checksum C84762CF0E1EBAB421E9F99C818D2E45595E2462DBC89260CC98C50945B92BBB ====

Отчет auCDtect Task manager&#58;

-----------------------
DON'T MODIFY THIS FILE
-----------------------
PERFORMER: auCDtect Task Manager, ver. 1.6.0 RC1 build 1.6.0.1
Copyright (c) 2008-2010 y-soft. All rights reserved
http://y-soft.org
ANALYZER: auCDtect: CD records authenticity detector, version 0.8.2
Copyright (c) 2004 Oleg Berngardt. All rights reserved.
Copyright (c) 2004 Alexander Djourik. All rights reserved.
FILE: 05 - Waiting For A Friend.flac
  Size: 32511526 Hash: 6ACFC284F9325EC4CD56752628C099BA Accuracy: -m0
  Conclusion: CDDA 100%
  Signature: E55354D5C22F84F8D6167B60127B7AE5FC1262D1
FILE: 04 - A Place To Call.flac
  Size: 103631770 Hash: 4179A7BC5A4CFB868DBB8C3823E48509 Accuracy: -m0
  Conclusion: CDDA 100%
  Signature: 9A89E95EA5102DBBDF7054B64040892E7BA521D6
FILE: 03 - Wasted Away In Your Waves (This Is Love).flac
  Size: 126799101 Hash: D079A2268BA2CD26CD218566CEEFA6FE Accuracy: -m0
  Conclusion: CDDA 100%
  Signature: 52F14F9345BDA953A1393E42AFE84803FF6E27EE
FILE: 02 - (N)ever Existed.flac
  Size: 136321964 Hash: D4E12AEEB3EA07AAC5D4FE7B315606EF Accuracy: -m0
  Conclusion: CDDA 99%
  Signature: D34C4B294A6E092C5CE7B22844AE2597918E522A
FILE: 01 - Never Meant You Any Harm.flac
  Size: 97226271 Hash: 842304AEA639819F40ED166C81B374E8 Accuracy: -m0
  Conclusion: CDDA 100%
  Signature: C63F1F66F910A6A3251E2C158D04053BBD0522B3

Содержание индексной карты .Cue&#58;

PERFORMER "Bvdub"
TITLE "At Night The City Becomes The Sea"
REM DATE 2013
REM DISCNUMBER 1
REM TOTALDISCS 1
REM GENRE "Ambient, Techno"
FILE "01 - Never Meant You Any Harm.flac" WAVE
  TRACK 01 AUDIO
    PERFORMER "Bvdub"
    TITLE "Never Meant You Any Harm"
    INDEX 01 00:00:00
FILE "02 - (N)ever Existed.flac" WAVE
  TRACK 02 AUDIO
    PERFORMER "Bvdub"
    TITLE "(N)ever Existed"
    INDEX 01 00:00:00
FILE "03 - Wasted Away In Your Waves (This Is Love).flac" WAVE
  TRACK 03 AUDIO
    PERFORMER "Bvdub"
    TITLE "Wasted Away In Your Waves (This Is Love)"
    INDEX 01 00:00:00
FILE "04 - A Place To Call.flac" WAVE
  TRACK 04 AUDIO
    PERFORMER "Bvdub"
    TITLE "A Place To Call"
    INDEX 01 00:00:00
FILE "05 - Waiting For A Friend.flac" WAVE
  TRACK 05 AUDIO
    PERFORMER "Bvdub"
    TITLE "Waiting For A Friend"
    INDEX 01 00:00:00
Bvdub & Loscil - Erebus (2013)-- Год: 2013
Лейбл: Glacial Movements Records
Каталог#: GM020
Тип рипа: tracks
Прoдолжительность: 01:17:15
Трeклист:

01. Aether (13:20)
02. Hespiredes (14:24)
03. Hypnos (24:19)
04. Moirai (16:32)
05. Thanatos (08:40)

Отчет auCDtect Task manager&#58;

-----------------------
DON'T MODIFY THIS FILE
-----------------------
PERFORMER: auCDtect Task Manager, ver. 1.6.0 RC1 build 1.6.0.1
Copyright (c) 2008-2010 y-soft. All rights reserved
http://y-soft.org
ANALYZER: auCDtect: CD records authenticity detector, version 0.8.2
Copyright (c) 2004 Oleg Berngardt. All rights reserved.
Copyright (c) 2004 Alexander Djourik. All rights reserved.
FILE: 05 - Thanatos.flac
  Size: 47373300 Hash: 1BE0DE1321A78B220205F0A8C814FFB8 Accuracy: -m0
  Conclusion: CDDA 100%
  Signature: 8201E6FB2B69D55018466FC94A86BFC0BE214A07
FILE: 04 - Moirai.flac
  Size: 95351536 Hash: E18C08B257783DF105AC3EE3D7E5C5E8 Accuracy: -m0
  Conclusion: CDDA 100%
  Signature: 1014EBC16D70734E4AF13A4730308E26288FFB7C
FILE: 03 - Hypnos.flac
  Size: 143380169 Hash: B2843AE03B4D80A1858277B262EFA2E7 Accuracy: -m0
  Conclusion: CDDA 100%
  Signature: AF45F824DDF63AE88FA33E412E560DD3302654F5
FILE: 02 - Hespiredes.flac
  Size: 81236385 Hash: 90CC1EF2F7FA31314B2313B16C3AA605 Accuracy: -m0
  Conclusion: CDDA 100%
  Signature: 55D15D94FD7B23CD336A697EB44A763A75B063D8
FILE: 01 - Aether.flac
  Size: 75770759 Hash: 170ECBC9BEA1870CAFF4C7EC098C6D40 Accuracy: -m0
  Conclusion: CDDA 100%
  Signature: 5C64F7E78F5BF4FAF9831E37F6204A75CA3E837D
Bvdub - Tanto (2014)-- Год выпуска: 2014
Лейбл: Quietus Recordings
Каталог#: QUIETUS 008
Тип рипа: tracks
Прoдолжительность: 01:16:20
Трeклист:

01. I Break All Around You (14:26)
02. You Tell Me To Be Strong (16:45)
03. As We Remember A Life Of Love (15:14)
04. I Pray To A Godless Sky (10:16)
05. And I Want To Be As Strong As You (11:28)
06. But I Am Broken (08:11)

Отчет auCDtect Task manager&#58;

-----------------------
DON'T MODIFY THIS FILE
-----------------------
PERFORMER: auCDtect Task Manager, ver. 1.6.0 RC1 build 1.6.0.1
Copyright (c) 2008-2010 y-soft. All rights reserved
http://y-soft.org
ANALYZER: auCDtect: CD records authenticity detector, version 0.8.2
Copyright (c) 2004 Oleg Berngardt. All rights reserved.
Copyright (c) 2004 Alexander Djourik. All rights reserved.
FILE: 06 - But I Am Broken.flac
  Size: 42424238 Hash: ED501A5A5880044260417A5AF1871C55 Accuracy: -m0
  Conclusion: CDDA 99%
  Signature: 723AE70DD54697DE2DB3512213C1DE6954354819
FILE: 05 - And I Want To Be As Strong As You.flac
  Size: 67193342 Hash: AC64F98D6B41E8FFD02C49CC3F8042E1 Accuracy: -m0
  Conclusion: CDDA 100%
  Signature: B994160A8CE3000C5061755CCBE00DF11C0283ED
FILE: 04 - I Pray To A Godless Sky.flac
  Size: 58580605 Hash: 247E83AA67075613D0B6EEDFB323BCA3 Accuracy: -m0
  Conclusion: CDDA 100%
  Signature: 59856F626FD199A75AE03C660BDEB04245B23969
FILE: 03 - As We Remember A Life Of Love.flac
  Size: 96329462 Hash: 8C127E4A54040022A3D5E63206D7F9BB Accuracy: -m0
  Conclusion: CDDA 100%
  Signature: 83851DE25D13B963CE1F1D4730C4DAE64C7D939F
FILE: 02 - You Tell Me To Be Strong.flac
  Size: 102531899 Hash: 086E066D0D177029632482F66C7FC550 Accuracy: -m0
  Conclusion: CDDA 100%
  Signature: DD825D2F1BB37EE107B53E443797588C64200E80
FILE: 01 - I Break All Around You.flac
  Size: 86504048 Hash: E8D879C40C3774135178002CE070B5DC Accuracy: -m0
  Conclusion: CDDA 100%
  Signature: E7839B6C2350EE09B924901EDB9704CE77D56686
-EPS-Bvdub - Return To Tonglu EP (2008)-- Год выпуска: 2008
Лейбл: Quietus Recordings
Каталог#: QUIETUS 004
Тип рипа: tracks+.cue
Прoдолжительность: 00:46:16
Трeклист:

01. Return To Tonglu (12:32)
02. Always On The Outside (11:56)
03. The Road Home (11:46)
04. It's Too Late (10:02)

Отчет auCDtect Task manager&#58;

-----------------------
DON'T MODIFY THIS FILE
-----------------------
PERFORMER: auCDtect Task Manager, ver. 1.6.0 RC1 build 1.6.0.1
Copyright (c) 2008-2010 y-soft. All rights reserved
http://y-soft.org
ANALYZER: auCDtect: CD records authenticity detector, version 0.8.2
Copyright (c) 2004 Oleg Berngardt. All rights reserved.
Copyright (c) 2004 Alexander Djourik. All rights reserved.
FILE: 04 - It's Too Late.flac
  Size: 46264843 Hash: 15AAC6A3BACC93BA7E38812E7954E080 Accuracy: -m0
  Conclusion: CDDA 100%
  Signature: 817A31752B0E4EF73B4AC0F5E08E6A8227F1737E
FILE: 03 - The Road Home.flac
  Size: 42725430 Hash: 6B85DB9591FA500342D2C0E21AC5B7D2 Accuracy: -m0
  Conclusion: CDDA 94%
  Signature: 0A30869F48E53DB00A260FA9E79F7DF02614CD00
FILE: 02 - Always On The Outside.flac
  Size: 63562839 Hash: 62C97BA22D70BA840EF644818C5AE12E Accuracy: -m0
  Conclusion: CDDA 100%
  Signature: 2859CD5A0B77BB21AC6140370101227F98567CC2
FILE: 01 - Return To Tonglu.flac
  Size: 62704798 Hash: E1330819FA6787A95C7B639D1B90A430 Accuracy: -m0
  Conclusion: CDDA 100%
  Signature: 009D17C980A9232DE741416946206FAC856098FE

Содержание индексной карты .Cue&#58;

REM GENRE "IDM, Ambient"
REM DATE 2008
REM DISCID 2E0AD804
PERFORMER "Bvdub"
TITLE "Return To Tonglu"
FILE "01 - Return To Tonglu.flac" WAVE
  TRACK 01 AUDIO
    TITLE "Return To Tonglu"
    PERFORMER "Bvdub"
    INDEX 01 00:00:00
FILE "02 - Always On The Outside.flac" WAVE
  TRACK 02 AUDIO
    TITLE "Always On The Outside"
    PERFORMER "Bvdub"
    INDEX 01 00:00:00
FILE "03 - The Road Home.flac" WAVE
  TRACK 03 AUDIO
    TITLE "The Road Home"
    PERFORMER "Bvdub"
    INDEX 01 00:00:00
FILE "04 - It's Too Late.flac" WAVE
  TRACK 04 AUDIO
    TITLE "It's Too Late"
    PERFORMER "Bvdub"
    INDEX 01 00:00:00
AlbumsBrock Van Wey - White Clouds Drift On And On (2009)-- Год: 2009
Лейбл: echospace [detroit]
Каталог#: ECHOSPACE [DETROIT] AIR1
Тип рипа: tracks+.cue
Прoдолжительность: 02:37:18
White Clouds Drift On And On CD1

Прoдолжительность: 01:17:39
Трeклист:

01. Too Little Too Late (11:12)
02. I Knew Happiness Once (16:17)
03. Forever A Stanger (12:30)
04. A Gentle Hand to Hold (14:56)
05. A Chance To Start Over (15:32)
06. White Clouds Drift On And On (07:12)

White Clouds Drift On And On CD2
Прoдолжительность: 01:19:39
Трeклист:

01. White Clouds Drift On And On (Intrusion Shape I) (24:15)
02. A Chance To Start Over (Intrusion Shape II) (11:18)
03. A Gentle Hand To Hold (Intrusion Shape III) (17:11)
04. Forever A Stanger (Intrusion Shape IV) (11:08)
05. I Knew Happiness Once (Intrusion Shape V) (09:20)
06. Too Little Too Late (Intrusion Shape VI) (06:24)

Отчет auCDtect Task manager CD1&#58;

-----------------------
DON'T MODIFY THIS FILE
-----------------------
PERFORMER: auCDtect Task Manager, ver. 1.6.0 RC1 build 1.6.0.1
Copyright (c) 2008-2010 y-soft. All rights reserved
http://y-soft.org
ANALYZER: auCDtect: CD records authenticity detector, version 0.8.2
Copyright (c) 2004 Oleg Berngardt. All rights reserved.
Copyright (c) 2004 Alexander Djourik. All rights reserved.
FILE: 06 - White Clouds Drift On And On.flac
  Size: 43972846 Hash: B14EDF03801ADDF30475A359E47C94EC Accuracy: -m0
  Conclusion: CDDA 100%
  Signature: 630D4D67CBD8EE6ADBF2FE3C7C67EF6969D713C1
FILE: 05 - A Chance To Start Over.flac
  Size: 94216698 Hash: 53E2D62155EDAEEB68485D70D4BEDFF0 Accuracy: -m0
  Conclusion: CDDA 100%
  Signature: 43E98D43BC6619854F844DEB0ECC47E28B960439
FILE: 04 - A Gentle Hand to Hold.flac
  Size: 105818865 Hash: 78429439B57869AFB4BE51CB72A94AF5 Accuracy: -m0
  Conclusion: CDDA 100%
  Signature: BB73BF5E0AF633584AB9A04D5CE8CF04FE31831D
FILE: 03 - Forever A Stanger.flac
  Size: 91989043 Hash: 5D7FDAAC79333AEAAD360D524D5C5D53 Accuracy: -m0
  Conclusion: CDDA 100%
  Signature: 5EE9F309EAA2230499F1FC46B9B69D798A8F6611
FILE: 02 - I Knew Happiness Once.flac
  Size: 117538488 Hash: CE6580A26C9D542CDF38FFB1A948151A Accuracy: -m0
  Conclusion: CDDA 100%
  Signature: F274B81BD47C9104AED1B2377383E48632FB9288
FILE: 01 - Too Little Too Late.flac
  Size: 65099556 Hash: DFBE03ACDB127DD2DDE243B3635D1286 Accuracy: -m0
  Conclusion: CDDA 100%
  Signature: 9E29DD5931E39F92D7644F54C40F62C856C8DB27

Отчет auCDtect Task manager CD2&#58;

-----------------------
DON'T MODIFY THIS FILE
-----------------------
PERFORMER: auCDtect Task Manager, ver. 1.6.0 RC1 build 1.6.0.1
Copyright (c) 2008-2010 y-soft. All rights reserved
http://y-soft.org
ANALYZER: auCDtect: CD records authenticity detector, version 0.8.2
Copyright (c) 2004 Oleg Berngardt. All rights reserved.
Copyright (c) 2004 Alexander Djourik. All rights reserved.
FILE: 06 - Too Little Too Late (Intrusion Shape VI).flac
  Size: 35254188 Hash: DDC527C5C2EB4F81B01E7DCA9E6CF665 Accuracy: -m0
  Conclusion: CDDA 100%
  Signature: A0AA160D9C4BB331EFFE660C9812C774B3357D94
FILE: 05 - I Knew Happiness Once (Intrusion Shape V).flac
  Size: 49152898 Hash: EBC9EF9A1DE032FADB92816FF7A035AB Accuracy: -m0
  Conclusion: CDDA 100%
  Signature: D0942859EB479F3137BC0473321184986BD6E405
FILE: 04 - Forever A Stanger (Intrusion Shape IV).flac
  Size: 58883768 Hash: 1D7D68F27EE5D710F82626C57923DE7D Accuracy: -m0
  Conclusion: CDDA 100%
  Signature: 49BA37C9E2A2C9398C8B4185B477724E2A892768
FILE: 03 - A Gentle Hand To Hold (Intrusion Shape III).flac
  Size: 92594574 Hash: C32CB8FABE84FF5EB442E9EC51C83003 Accuracy: -m0
  Conclusion: CDDA 58%
  Signature: 1A6E5B6E0413E3C95E8B989B9B415091929FCE1E
FILE: 02 - A Chance To Start Over (Intrusion Shape II).flac
  Size: 56511575 Hash: 127B6269D42F73A43EE234ABA24D2DD3 Accuracy: -m0
  Conclusion: CDDA 100%
  Signature: 3D3503C7E60D393569C3FF24AB59868C6C75F246
FILE: 01 - White Clouds Drift On And On (Intrusion Shape I).flac
  Size: 148454445 Hash: CDE063495AB8972D8D3AFAA25F489B3D Accuracy: -m0
  Conclusion: CDDA 99%
  Signature: 5C56163C94791B63163F63067E05A3C2F493E412

Содержание индексной карты .Cue CD1&#58;

PERFORMER "Brock Van Wey"
TITLE "White Clouds Drift On And On"
REM DATE 2009
REM DISCNUMBER 2
REM TOTALDISCS 2
REM GENRE "Dub Techno, Ambient"
FILE "01 - Too Little Too Late.flac" WAVE
  TRACK 01 AUDIO
    PERFORMER "Brock Van Wey"
    TITLE "Too Little Too Late"
    INDEX 01 00:00:00
FILE "02 - I Knew Happiness Once.flac" WAVE
  TRACK 02 AUDIO
    PERFORMER "Brock Van Wey"
    TITLE "I Knew Happiness Once"
    INDEX 01 00:00:00
FILE "03 - Forever A Stanger.flac" WAVE
  TRACK 03 AUDIO
    PERFORMER "Brock Van Wey"
    TITLE "Forever A Stanger"
    INDEX 01 00:00:00
FILE "04 - A Gentle Hand to Hold.flac" WAVE
  TRACK 04 AUDIO
    PERFORMER "Brock Van Wey"
    TITLE "A Gentle Hand to Hold"
    INDEX 01 00:00:00
FILE "05 - A Chance To Start Over.flac" WAVE
  TRACK 05 AUDIO
    PERFORMER "Brock Van Wey"
    TITLE "A Chance To Start Over"
    INDEX 01 00:00:00
FILE "06 - White Clouds Drift On And On.flac" WAVE
  TRACK 06 AUDIO
    PERFORMER "Brock Van Wey"
    TITLE "White Clouds Drift On And On"
    INDEX 01 00:00:00

Содержание индексной карты .Cue CD2&#58;

PERFORMER "Brock Van Wey"
TITLE "White Clouds Drift On And On"
REM DATE 2009
REM DISCNUMBER 2
REM TOTALDISCS 2
REM GENRE "Dub Techno, Ambient"
FILE "01 - White Clouds Drift On And On (Intrusion Shape I).flac" WAVE
  TRACK 01 AUDIO
    PERFORMER "Brock Van Wey"
    TITLE "White Clouds Drift On And On (Intrusion Shape I)"
    INDEX 01 00:00:00
FILE "02 - A Chance To Start Over (Intrusion Shape II).flac" WAVE
  TRACK 02 AUDIO
    PERFORMER "Brock Van Wey"
    TITLE "A Chance To Start Over (Intrusion Shape II)"
    INDEX 01 00:00:00
FILE "03 - A Gentle Hand To Hold (Intrusion Shape III).flac" WAVE
  TRACK 03 AUDIO
    PERFORMER "Brock Van Wey"
    TITLE "A Gentle Hand To Hold (Intrusion Shape III)"
    INDEX 01 00:00:00
FILE "04 - Forever A Stanger (Intrusion Shape IV).flac" WAVE
  TRACK 04 AUDIO
    PERFORMER "Brock Van Wey"
    TITLE "Forever A Stanger (Intrusion Shape IV)"
    INDEX 01 00:00:00
FILE "05 - I Knew Happiness Once (Intrusion Shape V).flac" WAVE
  TRACK 05 AUDIO
    PERFORMER "Brock Van Wey"
    TITLE "I Knew Happiness Once (Intrusion Shape V)"
    INDEX 01 00:00:00
FILE "06 - Too Little Too Late (Intrusion Shape VI).flac" WAVE
  TRACK 06 AUDIO
    PERFORMER "Brock Van Wey"
    TITLE "Too Little Too Late (Intrusion Shape VI)"
    INDEX 01 00:00:00

Создавать темы 18-Дек-2014 21:55 (спустя 2 дня 22 часа)

Далее&#58;

Brock Van Wey - Home (2014)-- Год: 2014
Лейбл: echospace [detroit]
Каталог# ECHOSPACE [DETROIT] AIR 3
Тип рипа: tracks+.cue+log
Прoдолжительность: 02:33:07
Home CD1
Прoдолжительность: 01:17:09
Трeклист:
01. Mountains Will Keep Your Secrets (10:35)
02. Empty Houses From Above (19:31)
03. You Built A Kingdom But No One Said Its Name (14:06)
04. A Heart Of Darkness (21:29)
05. Than To Have Ever Lived At All (11:28)

Отчет EAC CD1

Exact Audio Copy V1.0 beta 3 from 29. August 2011
EAC extraction logfile from 2. March 2014, 10:38
Brock Van Wey  / Home
Used drive  : ASUS    DRW-20B1LT   Adapter: 0  ID: 1
Read mode               : Secure
Utilize accurate stream : Yes
Defeat audio cache      : Yes
Make use of C2 pointers : No
Read offset correction                      : 6
Overread into Lead-In and Lead-Out          : No
Fill up missing offset samples with silence : Yes
Delete leading and trailing silent blocks   : No
Null samples used in CRC calculations       : Yes
Used interface                              : Native Win32 interface for Win NT & 2000
Gap handling                                : Appended to previous track
Used output format              : User Defined Encoder
Selected bitrate                : 1024 kBit/s
Quality                         : High
Add ID3 tag                     : No
Command line compressor         : C:\Program Files (x86)\FLAC\flac.exe
Additional command line options : -8 -V -T "ARTIST=%artist%" -T "TITLE=%title%" -T "ALBUM=%albumtitle%" -T "DATE=%year%" -T "TRACKNUMBER=%tracknr1%" -T "GENRE=%genre%" -T "DISCNUMBER=%cdnumber%" -T "TOTALDISCS=%totalcds%" -T "TOTALTRACKS=%numtracks%" %source% -o %dest%
TOC of the extracted CD
     Track |   Start  |  Length  | Start sector | End sector
    ---------------------------------------------------------
        1  |  0:00.00 | 10:34.55 |         0    |    47604
        2  | 10:34.55 | 19:30.44 |     47605    |   135398
        3  | 30:05.24 | 14:05.70 |    135399    |   198843
        4  | 44:11.19 | 21:29.10 |    198844    |   295528
        5  | 65:40.29 | 11:28.10 |    295529    |   347138
Track  1
     Filename U:\Brock Van Wey - Home\CD1\01_Brock_Van_Wey_Mountains_Will_Keep_Your_Secrets.wav
     Pre-gap length  0:00:02.00
     Peak level 98.9 %
     Extraction speed 6.6 X
     Track quality 100.0 %
     Test CRC 58F5E984
     Copy CRC 58F5E984
     Track not present in AccurateRip database
     Copy OK
Track  2
     Filename U:\Brock Van Wey - Home\CD1\02_Brock_Van_Wey_Empty_Houses_From_Above.wav
     Pre-gap length  0:00:01.00
     Peak level 98.9 %
     Extraction speed 8.3 X
     Track quality 99.9 %
     Test CRC 1EE5CA56
     Copy CRC 1EE5CA56
     Track not present in AccurateRip database
     Copy OK
Track  3
     Filename U:\Brock Van Wey - Home\CD1\03_Brock_Van_Wey_You_Built_A_Kingdom_But_No_One_Said_Its_Name.wav
     Pre-gap length  0:00:01.00
     Peak level 98.9 %
     Extraction speed 9.6 X
     Track quality 99.9 %
     Test CRC 8887CAA9
     Copy CRC 8887CAA9
     Track not present in AccurateRip database
     Copy OK
Track  4
     Filename U:\Brock Van Wey - Home\CD1\04_Brock_Van_Wey_A_Heart_Of_Darkness.wav
     Pre-gap length  0:00:01.00
     Peak level 98.9 %
     Extraction speed 11.3 X
     Track quality 99.9 %
     Test CRC 1CA62982
     Copy CRC 1CA62982
     Track not present in AccurateRip database
     Copy OK
Track  5
     Filename U:\Brock Van Wey - Home\CD1\05_Brock_Van_Wey_Than_To_Have_Ever_Lived_At_All.wav
     Pre-gap length  0:00:01.00
     Peak level 98.9 %
     Extraction speed 12.6 X
     Track quality 100.0 %
     Test CRC F29A6604
     Copy CRC F29A6604
     Track not present in AccurateRip database
     Copy OK
None of the tracks are present in the AccurateRip database
No errors occurred
End of status report
==== Log checksum CB46C9184C2A712EF9F91C234EA54BC95AD2300F3A91C84B2831799203CC65A4 ====
Home CD2
Прoдолжительность: 01:15:58
Трeклист:
01. Got To Carry On (12:30)
02. I Wish I Could Say More Than This (13:28)
03. We Built Steps To The Sky (12:25)
04. Can't Go Home Without You (22:11)
05. Walk Through Walls (For SH) (15:24)

Отчет EAC CD2

Exact Audio Copy V1.0 beta 3 from 29. August 2011
EAC extraction logfile from 2. March 2014, 11:32
Brock Van Wey / Home
Used drive  : ASUS    DRW-20B1LT   Adapter: 0  ID: 1
Read mode               : Secure
Utilize accurate stream : Yes
Defeat audio cache      : Yes
Make use of C2 pointers : No
Read offset correction                      : 6
Overread into Lead-In and Lead-Out          : No
Fill up missing offset samples with silence : Yes
Delete leading and trailing silent blocks   : No
Null samples used in CRC calculations       : Yes
Used interface                              : Native Win32 interface for Win NT & 2000
Gap handling                                : Appended to previous track
Used output format              : User Defined Encoder
Selected bitrate                : 1024 kBit/s
Quality                         : High
Add ID3 tag                     : No
Command line compressor         : C:\Program Files (x86)\FLAC\flac.exe
Additional command line options : -8 -V -T "ARTIST=%artist%" -T "TITLE=%title%" -T "ALBUM=%albumtitle%" -T "DATE=%year%" -T "TRACKNUMBER=%tracknr1%" -T "GENRE=%genre%" -T "DISCNUMBER=%cdnumber%" -T "TOTALDISCS=%totalcds%" -T "TOTALTRACKS=%numtracks%" %source% -o %dest%
TOC of the extracted CD
     Track |   Start  |  Length  | Start sector | End sector
    ---------------------------------------------------------
        1  |  0:00.00 | 12:29.70 |         0    |    56244
        2  | 12:29.70 | 13:27.40 |     56245    |   116809
        3  | 25:57.35 | 12:25.10 |    116810    |   172694
        4  | 38:22.45 | 22:10.55 |    172695    |   272499
        5  | 60:33.25 | 15:24.10 |    272500    |   341809
Track  1
     Filename U:\Brock Van Wey - Home\CD2\01_Brock_Van_Wey_Got_To_Carry_On.wav
     Pre-gap length  0:00:02.00
     Peak level 98.8 %
     Extraction speed 2.4 X
     Track quality 100.0 %
     Test CRC DFF28BAE
     Copy CRC DFF28BAE
     Track not present in AccurateRip database
     Copy OK
Track  2
     Filename U:\Brock Van Wey - Home\CD2\02_Brock_Van_Wey_I_Wish_I_Could_Say_More_Than_This.wav
     Pre-gap length  0:00:01.00
     Peak level 98.9 %
     Extraction speed 3.0 X
     Track quality 100.0 %
     Test CRC 71127C7C
     Copy CRC 71127C7C
     Track not present in AccurateRip database
     Copy OK
Track  3
     Filename U:\Brock Van Wey - Home\CD2\03_Brock_Van_Wey_We_Built_Steps_To_The_Sky.wav
     Pre-gap length  0:00:01.00
     Peak level 98.9 %
     Extraction speed 3.5 X
     Track quality 100.0 %
     Test CRC 5D9C7E56
     Copy CRC 5D9C7E56
     Track not present in AccurateRip database
     Copy OK
Track  4
     Filename U:\Brock Van Wey - Home\CD2\04_Brock_Van_Wey_Can't_Go_Home_Without_You.wav
     Pre-gap length  0:00:01.00
     Peak level 98.8 %
     Extraction speed 4.2 X
     Track quality 100.0 %
     Test CRC B52CD2E9
     Copy CRC B52CD2E9
     Track not present in AccurateRip database
     Copy OK
Track  5
     Filename U:\Brock Van Wey - Home\CD2\05_Brock_Van_Wey_Walk_Through_Walls_(For_SH).wav
     Pre-gap length  0:00:01.00
     Peak level 98.9 %
     Extraction speed 4.6 X
     Track quality 100.0 %
     Test CRC AD1404A0
     Copy CRC AD1404A0
     Track not present in AccurateRip database
     Copy OK
None of the tracks are present in the AccurateRip database
No errors occurred
End of status report
==== Log checksum 089B6ECC4F0874DE6B2D073AEC0FEA1333E9260315EFF2758901569476CCF4A5 ====
Яндекс.Метрика
Рейтинг@Mail.ru