VA - Erotic Lounge part III (2012) [FLAC|Lossless]<Chillout, Lounge>

 

Создавать темы 15-Дек-2014 23:05

-VA - Erotic Lounge part III (2012)- Год: 2012
Жанр: Chillout, Lounge
Лейбл: TME/DreaMusic
Каталог#: ПР3 CD04762
Продолжительность: 01:04:17-Кодек: FLAC
Битрейт: Lossless
Тип рипа: image + .cue-К лету лейбл Dreamusic выпустил новый сборник серии Erotic lounge. Его постарались сделать более горячим и соблазнительным, это не просто музыка с эротическим настроением, она способна зажечь огонь в слушателях, так, что с этим сборником вечер для двоих станет совершенно незабываемым и предельно чувственным. Сборник Erotic lounge имеет такое название неслучайно – он состоит из уникальных композиций, которые оказывают необъяснимый, но ощутимый эффект на человека, способствуют погружению в бесконечный мир эмоций, нежности, в мир эротики. Приятного времяпрепровождения-Трек лист:
01. Bloomfield – Love me please love me
02. No noise – Expand your mind
03. Sphere – I fly away
04. Bloomfield – Love you
05. Moca – Lounge lizard
06. Lenny MacDowell – To remember
07. Dub Diver – Prosphorion
08. No noise – Yin and Yang
09. Dub Diver – Night tides
10. No noise – Kharma Shabda
11. Moca – Too far out
12. Sphere – Baby’s gone

Отчёт ЕАС&#58;

Exact Audio Copy V0.99 prebeta 5 from 4. May 2009
EAC extraction logfile from 8. November 2012, 20:33
Various / Erotic Lounge part III
Used drive  : TSSTcorpCDDVDW TS-L633C   Adapter: 1  ID: 0
Read mode               : Secure
Utilize accurate stream : Yes
Defeat audio cache      : Yes
Make use of C2 pointers : No
Read offset correction                      : 6
Overread into Lead-In and Lead-Out          : No
Fill up missing offset samples with silence : Yes
Delete leading and trailing silent blocks   : No
Null samples used in CRC calculations       : Yes
Used interface                              : Native Win32 interface for Win NT & 2000
Used output format              : User Defined Encoder
Selected bitrate                : 768 kBit/s
Quality                         : High
Add ID3 tag                     : No
Command line compressor         : C:\Program Files (x86)\Exact Audio Copy\Flac\flac.exe
Additional command line options : -8 -V %s
TOC of the extracted CD
     Track |   Start  |  Length  | Start sector | End sector
    ---------------------------------------------------------
        1  |  0:00.00 |  4:02.04 |         0    |    18153
        2  |  4:02.04 |  5:12.55 |     18154    |    41608
        3  |  9:14.59 |  4:30.16 |     41609    |    61874
        4  | 13:45.00 |  4:50.08 |     61875    |    83632
        5  | 18:35.08 |  5:08.61 |     83633    |   106793
        6  | 23:43.69 |  7:33.63 |    106794    |   140831
        7  | 31:17.57 |  5:59.74 |    140832    |   167830
        8  | 37:17.56 |  4:30.47 |    167831    |   188127
        9  | 41:48.28 |  6:28.47 |    188128    |   217274
       10  | 48:17.00 |  5:06.70 |    217275    |   240294
       11  | 53:23.70 |  5:06.30 |    240295    |   263274
       12  | 58:30.25 |  5:46.49 |    263275    |   289273
Range status and errors
Selected range
     Filename H:\Диск\Various - Erotic Lounge part III.wav
     Peak level 100.0 %
     Range quality 100.0 %
     Test CRC FBE39678
     Copy CRC FBE39678
     Copy OK
No errors occurred
AccurateRip summary
Track  1  not present in database
Track  2  not present in database
Track  3  not present in database
Track  4  not present in database
Track  5  not present in database
Track  6  not present in database
Track  7  not present in database
Track  8  not present in database
Track  9  not present in database
Track 10  not present in database
Track 11  not present in database
Track 12  not present in database
None of the tracks are present in the AccurateRip database
End of status report

Отчёт auCDtect Task manager&#58;

-----------------------
DON'T MODIFY THIS FILE
-----------------------
PERFORMER: auCDtect Task Manager, ver. 1.5.1RC6 build 1.5.1.7
Copyright (c) 2008-2010 y-soft. All rights reserved
http://y-soft.org
ANALYZER: auCDtect: CD records authenticity detector, version 0.8.2
Copyright (c) 2004 Oleg Berngardt. All rights reserved.
Copyright (c) 2004 Alexander Djourik. All rights reserved.
FILE: Various - Erotic Lounge part III.flac
  Size: 429319421 Hash: 2337178E396BE20742F35FFD23F1E3B1 Accuracy: -m0
  Conclusion: CDDA 100%
  Signature: B297D814EF428722E9CC092C7E1EE63B9F9A57A3

Содержимое индексной карты .cue&#58;

REM GENRE "Chillout, lounge"
REM DATE 2012
REM DISCID A50F100C
REM COMMENT "ExactAudioCopy v0.99pb5"
PERFORMER "Various"
TITLE "Erotic Lounge part III"
FILE "Various - Erotic Lounge part III.flac" WAVE
  TRACK 01 AUDIO
    TITLE "Love me please love me"
    PERFORMER "Bloomfield"
    FLAGS DCP
    INDEX 01 00:00:00
  TRACK 02 AUDIO
    TITLE "Expand your mind"
    PERFORMER "No Noise"
    FLAGS DCP
    INDEX 01 04:02:04
  TRACK 03 AUDIO
    TITLE "I fly away"
    PERFORMER "Sphere"
    FLAGS DCP
    INDEX 01 09:14:59
  TRACK 04 AUDIO
    TITLE "Love you"
    PERFORMER "Bloomfield"
    FLAGS DCP
    INDEX 01 13:45:00
  TRACK 05 AUDIO
    TITLE "Lounge lizard"
    PERFORMER "Moca"
    FLAGS DCP
    INDEX 01 18:35:08
  TRACK 06 AUDIO
    TITLE "To remember"
    PERFORMER "Lenny MacDowell"
    FLAGS DCP
    INDEX 01 23:43:69
  TRACK 07 AUDIO
    TITLE "Prosphorion"
    PERFORMER "Dub Diver"
    FLAGS DCP
    INDEX 01 31:17:57
  TRACK 08 AUDIO
    TITLE "Yin and Yang"
    PERFORMER "No Noise"
    FLAGS DCP
    INDEX 01 37:17:56
  TRACK 09 AUDIO
    TITLE "Night tides"
    PERFORMER "Dub Diver"
    FLAGS DCP
    INDEX 01 41:48:28
  TRACK 10 AUDIO
    TITLE "Kharma Shabda"
    PERFORMER "No Noise"
    FLAGS DCP
    INDEX 01 48:17:00
  TRACK 11 AUDIO
    TITLE "Too far out"
    PERFORMER "Moca"
    FLAGS DCP
    INDEX 01 53:23:70
  TRACK 12 AUDIO
    TITLE "Baby’s gone"
    PERFORMER "Sphere"
    FLAGS DCP
    INDEX 01 58:30:25
-
Яндекс.Метрика
Рейтинг@Mail.ru