[ Сегодня на трекере фрилич! Идет свободное скачивание без начисления Download ]

VA - Erotic Lounge part 1 (2010) [FLAC|Lossless]<Lounge, Chillout>

 

Создавать темы 15-Дек-2014 23:05

-VA - Erotic Lounge part 1 (2010)- Год: 2010
Жанр: Lounge, Chillout
Продолжительность: 01:08:26-Кодек: FLAC
Битрейт: Lossless
Лейбл: Правительство звука™ / Dreamusic™
Каталог#: ПРЗ CD01211
Страна: Россия
Тип рипа: image +.cue
Источник: собственный рип-Трек лист:
01 Nutritious Wax - Asnowed
02 Dahrheim lounge - Summer breeze
03 Eddie Silverton feat. Yota Yota - Don’t tell me
04 J.Viewz - Protected
05 Dahrheim lounge - Butterfly
06 Popcorn - In focus
07 Misery boy - Some nights
08 Natural born chillers - Jazz flavored mazala
09 Dalminjo - Scars
10 Jeff Bennet’s lounge experience feat Alexandra - Sympathy
11 Hibiki connection - Cha-ka-too
12 Jeff Bennet’s lounge experience - There’re many things
13 J.Viewz - Feeler
14 Physics - Leaving Monte Carlo

Отчёт ЕАС&#58;

Exact Audio Copy V0.99 prebeta 5 from 4. May 2009
EAC extraction logfile from 22. September 2013, 18:05
Various / Erotic Lounge part 1
Used drive  : TSSTcorpCDDVDW TS-L633C   Adapter: 1  ID: 0
Read mode               : Secure
Utilize accurate stream : Yes
Defeat audio cache      : Yes
Make use of C2 pointers : No
Read offset correction                      : 6
Overread into Lead-In and Lead-Out          : No
Fill up missing offset samples with silence : Yes
Delete leading and trailing silent blocks   : No
Null samples used in CRC calculations       : Yes
Used interface                              : Native Win32 interface for Win NT & 2000
Used output format              : User Defined Encoder
Selected bitrate                : 768 kBit/s
Quality                         : High
Add ID3 tag                     : No
Command line compressor         : C:\Program Files (x86)\Exact Audio Copy\Flac\flac.exe
Additional command line options : -8 -V %s
TOC of the extracted CD
     Track |   Start  |  Length  | Start sector | End sector
    ---------------------------------------------------------
        1  |  0:00.00 |  4:13.14 |         0    |    18988
        2  |  4:13.14 |  4:54.73 |     18989    |    41111
        3  |  9:08.12 |  6:10.30 |     41112    |    68891
        4  | 15:18.42 |  3:15.03 |     68892    |    83519
        5  | 18:33.45 |  4:23.58 |     83520    |   103302
        6  | 22:57.28 |  4:49.58 |    103303    |   125035
        7  | 27:47.11 |  4:08.13 |    125036    |   143648
        8  | 31:55.24 |  3:55.12 |    143649    |   161285
        9  | 35:50.36 |  5:03.67 |    161286    |   184077
       10  | 40:54.28 |  5:04.48 |    184078    |   206925
       11  | 45:59.01 |  6:36.02 |    206926    |   236627
       12  | 52:35.03 |  7:28.59 |    236628    |   270286
       13  | 60:03.62 |  3:42.12 |    270287    |   286948
       14  | 63:45.74 |  4:40.10 |    286949    |   307958
Range status and errors
Selected range
     Filename H:\Диск\Various - Erotic Lounge part 1.wav
     Peak level 100.0 %
     Range quality 100.0 %
     Test CRC 46AF5ABF
     Copy CRC 46AF5ABF
     Copy OK
No errors occurred
AccurateRip summary
Track  1  not present in database
Track  2  not present in database
Track  3  not present in database
Track  4  not present in database
Track  5  not present in database
Track  6  not present in database
Track  7  not present in database
Track  8  not present in database
Track  9  not present in database
Track 10  not present in database
Track 11  not present in database
Track 12  not present in database
Track 13  not present in database
Track 14  not present in database
None of the tracks are present in the AccurateRip database
End of status report
-
Яндекс.Метрика
Рейтинг@Mail.ru