Tangerine Dream & Brian May - Starmus - Sonic Universe (2013) (2CD) [FLAC|Lossless]<Space, Electronic, Rock>

 

Создавать темы 15-Дек-2014 23:05

-Tangerine Dream & Brian May - Starmus - Sonic Universe (2013) (2CD)- Лейбл: Eastgate
Каталог: 061 CD
Год: 2013
Жанр: Space, Electronic, Rock
Продолжительность: 02:24:15
Кодек: FLAC
Битрейт: Lossless-Описание:
Двойной концертный альбом группы Tangerine Dream записанный на проходившем в 2011 году на острове Тенерифе мероприятии, посвященном 50-летию космического полета советского космонавта Юрия Гагарина.
В качестве гитариста в составе группы участвовал Брайан Мэй (Brian May).
-

Треклист&#58;

CD1. Треклист:
01. Supernova (Real Star Sounds)
02. Last Horizon
03. Marmontel Riding On A Clef
04. Trauma
05. Nothing And All
06. Nutshell Awakening
07. Shinning Ray
08. Beauty Of Magic Antagonism
09. Novice
10. One Night In Space
Продолжительность: 01:08:36

Отчёт ЕАС&#58;

Exact Audio Copy V0.99 prebeta 5 from 4. May 2009
EAC extraction logfile from 30. April 2013, 15:26
Tangerine Dream and Brian May / Starmus - Sonic Universe
Used drive  : Optiarc DVD RW AD-7260S   Adapter: 1  ID: 0
Read mode               : Secure
Utilize accurate stream : Yes
Defeat audio cache      : Yes
Make use of C2 pointers : No
Read offset correction                      : 48
Overread into Lead-In and Lead-Out          : No
Fill up missing offset samples with silence : Yes
Delete leading and trailing silent blocks   : No
Null samples used in CRC calculations       : Yes
Used interface                              : Native Win32 interface for Win NT & 2000
Used output format : Internal WAV Routines
Sample format      : 44.100 Hz; 16 Bit; Stereo
TOC of the extracted CD
     Track |   Start  |  Length  | Start sector | End sector
    ---------------------------------------------------------
        1  |  0:00.00 | 10:40.17 |         0    |    48016
        2  | 10:40.17 |  5:57.67 |     48017    |    74858
        3  | 16:38.09 |  8:13.56 |     74859    |   111889
        4  | 24:51.65 |  9:31.41 |    111890    |   154755
        5  | 34:23.31 |  2:12.52 |    154756    |   164707
        6  | 36:36.08 |  7:19.52 |    164708    |   197684
        7  | 43:55.60 |  5:35.02 |    197685    |   222811
        8  | 49:30.62 |  6:26.06 |    222812    |   251767
        9  | 55:56.68 |  5:06.31 |    251768    |   274748
       10  | 61:03.24 |  7:32.59 |    274749    |   308707
Range status and errors
Selected range
     Filename D:\0\EAC\Tangerine Dream and Brian May - Starmus - Sonic Universe (CD 1).wav
     Peak level 98.1 %
     Range quality 100.0 %
     Test CRC E61CA923
     Copy CRC E61CA923
     Copy OK
No errors occurred
AccurateRip summary
Track  1  not present in database
Track  2  not present in database
Track  3  not present in database
Track  4  not present in database
Track  5  not present in database
Track  6  not present in database
Track  7  not present in database
Track  8  not present in database
Track  9  not present in database
Track 10  not present in database
None of the tracks are present in the AccurateRip database
End of status report

Отчёт auCDtectTaskManager&#58;

-----------------------
DON'T MODIFY THIS FILE
-----------------------
PERFORMER: auCDtect Task Manager, ver. 1.5.1RC4 build 1.5.1.5
Copyright (c) 2008-2010 y-soft. All rights reserved
http://y-soft.org
ANALYZER: auCDtect: CD records authenticity detector, version 0.8.2
Copyright (c) 2004 Oleg Berngardt. All rights reserved.
Copyright (c) 2004 Alexander Djourik. All rights reserved.
FILE: Starmus - Sonic Universe (CD 1).flac
  Size: 485961881 Hash: 52EDA4AC4AF1FAA596B077C57CF58BBB Accuracy: -m0
  Conclusion: CDDA 100%
  Signature: C4F7DD5EDA19D4B85762246C6CEE39CE4AEB9944

Содержимое индексной карты&#58;

REM DATE 2013
REM DISCID 8E10140A
REM COMMENT "ExactAudioCopy v0.99pb5"
PERFORMER "Tangerine Dream & Brian May"
TITLE "Starmus - Sonic Universe (CD 1)"
FILE "Starmus - Sonic Universe (CD 1).flac" WAVE
  TRACK 01 AUDIO
    TITLE "Supernova (Real Star Sounds)"
    PERFORMER "Tangerine Dream & Brian May"
    INDEX 01 00:00:00
  TRACK 02 AUDIO
    TITLE "Last Horizon"
    PERFORMER "Tangerine Dream & Brian May"
    INDEX 01 10:40:17
  TRACK 03 AUDIO
    TITLE "Marmontel Riding On A Clef"
    PERFORMER "Tangerine Dream & Brian May"
    INDEX 01 16:38:09
  TRACK 04 AUDIO
    TITLE "Trauma"
    PERFORMER "Tangerine Dream & Brian May"
    INDEX 01 24:51:65
  TRACK 05 AUDIO
    TITLE "Nothing And All"
    PERFORMER "Tangerine Dream & Brian May"
    INDEX 01 34:23:31
  TRACK 06 AUDIO
    TITLE "Nutshell Awakening"
    PERFORMER "Tangerine Dream & Brian May"
    INDEX 01 36:36:08
  TRACK 07 AUDIO
    TITLE "Shinning Ray"
    PERFORMER "Tangerine Dream & Brian May"
    INDEX 01 43:55:60
  TRACK 08 AUDIO
    TITLE "Beauty Of Magic Antagonism"
    PERFORMER "Tangerine Dream & Brian May"
    INDEX 01 49:30:62
  TRACK 09 AUDIO
    TITLE "Novice"
    PERFORMER "Tangerine Dream & Brian May"
    INDEX 01 55:56:68
  TRACK 10 AUDIO
    TITLE "One Night In Space"
    PERFORMER "Tangerine Dream & Brian May"
    INDEX 01 61:03:24
- CD2. Трек лист:
01. Calymba Caly
02. Omniscience
03. Janus Parade
04. Loved By The Sun
05. Fire On The Mountain
06. Darkness Veiling The Night
07. Living In Eternity
08. Bells Of Accra
09. Sally' Garden
10. We Will Rock You (Extended)
11. Tenderness (Russian Song)
12. Mr. Alexey Leonov's Speech
Продолжительность: 01:15:39

Отчёт ЕАС&#58;

Exact Audio Copy V0.99 prebeta 5 from 4. May 2009
EAC extraction logfile from 30. April 2013, 18:30
Tangerine Dream and Brian May / Starmus - Sonic Universe
Used drive  : Optiarc DVD RW AD-7260S   Adapter: 1  ID: 0
Read mode               : Secure
Utilize accurate stream : Yes
Defeat audio cache      : Yes
Make use of C2 pointers : No
Read offset correction                      : 48
Overread into Lead-In and Lead-Out          : No
Fill up missing offset samples with silence : Yes
Delete leading and trailing silent blocks   : No
Null samples used in CRC calculations       : Yes
Used interface                              : Native Win32 interface for Win NT & 2000
Used output format : Internal WAV Routines
Sample format      : 44.100 Hz; 16 Bit; Stereo
TOC of the extracted CD
     Track |   Start  |  Length  | Start sector | End sector
    ---------------------------------------------------------
        1  |  0:00.00 |  3:43.06 |         0    |    16730
        2  |  3:43.06 |  5:32.08 |     16731    |    41638
        3  |  9:15.14 |  8:04.50 |     41639    |    77988
        4  | 17:19.64 |  3:28.24 |     77989    |    93612
        5  | 20:48.13 |  7:33.25 |     93613    |   127612
        6  | 28:21.38 |  8:55.08 |    127613    |   167745
        7  | 37:16.46 |  4:05.27 |    167746    |   186147
        8  | 41:21.73 |  9:59.02 |    186148    |   231074
        9  | 51:21.00 |  4:40.62 |    231075    |   252136
       10  | 56:01.62 | 12:47.33 |    252137    |   309694
       11  | 68:49.20 |  3:54.04 |    309695    |   327248
       12  | 72:43.24 |  2:55.49 |    327249    |   340422
Range status and errors
Selected range
     Filename D:\0\EAC\Tangerine Dream and Brian May - Starmus - Sonic Universe (CD 2).wav
     Peak level 98.1 %
     Range quality 99.9 %
     Test CRC 6F3B7629
     Copy CRC 6F3B7629
     Copy OK
No errors occurred
AccurateRip summary
Track  1  not present in database
Track  2  not present in database
Track  3  not present in database
Track  4  not present in database
Track  5  not present in database
Track  6  not present in database
Track  7  not present in database
Track  8  not present in database
Track  9  not present in database
Track 10  not present in database
Track 11  not present in database
Track 12  not present in database
None of the tracks are present in the AccurateRip database
End of status report

Отчёт auCDtectTaskManager&#58;

-----------------------
DON'T MODIFY THIS FILE
-----------------------
PERFORMER: auCDtect Task Manager, ver. 1.5.1RC4 build 1.5.1.5
Copyright (c) 2008-2010 y-soft. All rights reserved
http://y-soft.org
ANALYZER: auCDtect: CD records authenticity detector, version 0.8.2
Copyright (c) 2004 Oleg Berngardt. All rights reserved.
Copyright (c) 2004 Alexander Djourik. All rights reserved.
FILE: Starmus - Sonic Universe (CD 2).flac
  Size: 529352590 Hash: EAE50D3093A63FEAC8650E147E6E77B0 Accuracy: -m0
  Conclusion: CDDA 100%
  Signature: 2579305B3861AD3ABC1A7E775DE4C17492BC1ED3

Содержимое индексной карты&#58;

REM DATE 2013
REM DISCID 8D11BA0C
REM COMMENT "ExactAudioCopy v0.99pb5"
PERFORMER "Tangerine Dream & Brian May"
TITLE "Starmus - Sonic Universe (CD 2)"
FILE "Starmus - Sonic Universe (CD 2).flac" WAVE
  TRACK 01 AUDIO
    TITLE "Calymba Caly"
    PERFORMER "Tangerine Dream & Brian May"
    INDEX 01 00:00:00
  TRACK 02 AUDIO
    TITLE "Omniscience"
    PERFORMER "Tangerine Dream & Brian May"
    INDEX 01 03:43:06
  TRACK 03 AUDIO
    TITLE "Janus Parade"
    PERFORMER "Tangerine Dream & Brian May"
    INDEX 01 09:15:14
  TRACK 04 AUDIO
    TITLE "Loved By The Sun"
    PERFORMER "Tangerine Dream & Brian May"
    INDEX 01 17:19:64
  TRACK 05 AUDIO
    TITLE "Fire On The Mountain"
    PERFORMER "Tangerine Dream & Brian May"
    INDEX 01 20:48:13
  TRACK 06 AUDIO
    TITLE "Darkness Veiling The Night"
    PERFORMER "Tangerine Dream & Brian May"
    INDEX 01 28:21:38
  TRACK 07 AUDIO
    TITLE "Living In Eternity"
    PERFORMER "Tangerine Dream & Brian May"
    INDEX 01 37:16:46
  TRACK 08 AUDIO
    TITLE "Bells Of Accra"
    PERFORMER "Tangerine Dream & Brian May"
    INDEX 01 41:21:73
  TRACK 09 AUDIO
    TITLE "Sally' Garden"
    PERFORMER "Tangerine Dream & Brian May"
    INDEX 01 51:21:00
  TRACK 10 AUDIO
    TITLE "We Will Rock You (Extended)"
    PERFORMER "Tangerine Dream & Brian May"
    INDEX 01 56:01:62
  TRACK 11 AUDIO
    TITLE "Tenderness (Russian Song)"
    PERFORMER "Tangerine Dream & Brian May"
    INDEX 01 68:49:20
  TRACK 12 AUDIO
    TITLE "Mr. Alexey Leonov's Speech"
    PERFORMER "Tangerine Dream & Brian May"
    INDEX 01 72:43:24
-
Яндекс.Метрика
Рейтинг@Mail.ru