iambic (iambic²) - As The Snow Fell (2008) [FLAC|Lossless]<IDM, Minimal, Ambient>

 

Создавать темы 15-Дек-2014 23:05

-iambic² As The Snow Fell- Год: 2008
Издатель (лейбл): Laridae
Номер по каталогу: laridae037
Жанр: IDM, Minimal, Ambient
Продолжительность: 01:09:32
Кодек: FLAC
Битрейт: Lossless
Тип рипа: tracks+.cue
Треклист:
01. Storm's Theme (02:42)
02. To Wake, To See (06:42)
03. Night-13 (05:08)
04. Close Of Day (04:56)
05. When Father Cries (04:02)
06. This Day Goes Nowhere (05:13)
07. December's Shadows (06:00)
08. Sleep Cycle (12:14)
09. Beside You (04:47)
10. Dust Below The Ground (05:44)
11. It Snowed The Day We Died (08:08)
12. Summer Moon (bonus track) (03:56)

Отчёт ЕАС&#58;

Exact Audio Copy V0.99 prebeta 4 from 23. January 2008
EAC extraction logfile from 27. September 2008, 12:07
IambicІ / As The Snow Fell
Used drive  : _NEC    DVD_RW ND-3520A   Adapter: 2  ID: 0
Read mode               : Secure
Utilize accurate stream : Yes
Defeat audio cache      : Yes
Make use of C2 pointers : No
Read offset correction                      : 48
Overread into Lead-In and Lead-Out          : No
Fill up missing offset samples with silence : Yes
Delete leading and trailing silent blocks   : No
Null samples used in CRC calculations       : Yes
Used interface                              : Native Win32 interface for Win NT & 2000
Gap handling                                : Appended to previous track
Used output format              : User Defined Encoder
Selected bitrate                : 128 kBit/s
Quality                         : High
Add ID3 tag                     : No
Command line compressor         : C:\Program Files\EAC\Flac\flac.exe
Additional command line options : -V -8 -T "artist=%a" -T "title=%t" -T "album=%g" -T "date=%y" -T "tracknumber=%n" -T "genre=%m" %s
TOC of the extracted CD
     Track |   Start  |  Length  | Start sector | End sector
    ---------------------------------------------------------
        1  |  0:00.00 |  2:41.66 |         0    |    12140
        2  |  2:41.66 |  6:41.53 |     12141    |    42268
        3  |  9:23.44 |  5:07.39 |     42269    |    65332
        4  | 14:31.08 |  4:56.12 |     65333    |    87544
        5  | 19:27.20 |  4:01.37 |     87545    |   105656
        6  | 23:28.57 |  5:12.65 |    105657    |   129121
        7  | 28:41.47 |  6:00.09 |    129122    |   156130
        8  | 34:41.56 | 12:13.01 |    156131    |   211106
        9  | 46:54.57 |  4:46.41 |    211107    |   232597
       10  | 51:41.23 |  5:43.31 |    232598    |   258353
       11  | 57:24.54 |  8:07.04 |    258354    |   294882
       12  | 65:31.58 |  3:56.08 |    294883    |   312590
Track  1
     Filename H:\Downloads\Rips\IambicІ - As The Snow Fell-2008\01-IambicІ_-_Storm's_Theme.wav
     Pre-gap length  0:00:02.00
     Peak level 69.0 %
     Track quality 100.0 %
     Test CRC AD5E3E9D
     Copy CRC AD5E3E9D
     Track not present in AccurateRip database
     Copy OK
Track  2
     Filename H:\Downloads\Rips\IambicІ - As The Snow Fell-2008\02-IambicІ_-_To_Wake,_To_See.wav
     Peak level 96.6 %
     Track quality 99.8 %
     Test CRC 943BB630
     Copy CRC 943BB630
     Track not present in AccurateRip database
     Copy OK
Track  3
     Filename H:\Downloads\Rips\IambicІ - As The Snow Fell-2008\03-IambicІ_-_Night-13.wav
     Peak level 94.4 %
     Track quality 100.0 %
     Test CRC ECF03276
     Copy CRC ECF03276
     Track not present in AccurateRip database
     Copy OK
Track  4
     Filename H:\Downloads\Rips\IambicІ - As The Snow Fell-2008\04-IambicІ_-_Close_Of_Day.wav
     Peak level 98.8 %
     Track quality 99.9 %
     Test CRC 7BF6C994
     Copy CRC 7BF6C994
     Track not present in AccurateRip database
     Copy OK
Track  5
     Filename H:\Downloads\Rips\IambicІ - As The Snow Fell-2008\05-IambicІ_-_When_Father_Cries.wav
     Peak level 43.3 %
     Track quality 99.9 %
     Test CRC 28A3BF68
     Copy CRC 28A3BF68
     Track not present in AccurateRip database
     Copy OK
Track  6
     Filename H:\Downloads\Rips\IambicІ - As The Snow Fell-2008\06-IambicІ_-_This_Day_Goes_Nowhere.wav
     Peak level 97.7 %
     Track quality 99.9 %
     Test CRC C02BDB69
     Copy CRC C02BDB69
     Track not present in AccurateRip database
     Copy OK
Track  7
     Filename H:\Downloads\Rips\IambicІ - As The Snow Fell-2008\07-IambicІ_-_December's_Shadows.wav
     Peak level 94.7 %
     Track quality 100.0 %
     Test CRC 6E64B032
     Copy CRC 6E64B032
     Track not present in AccurateRip database
     Copy OK
Track  8
     Filename H:\Downloads\Rips\IambicІ - As The Snow Fell-2008\08-IambicІ_-_Sleep_Cycle.wav
     Peak level 100.0 %
     Track quality 100.0 %
     Test CRC 9333D248
     Copy CRC 9333D248
     Track not present in AccurateRip database
     Copy OK
Track  9
     Filename H:\Downloads\Rips\IambicІ - As The Snow Fell-2008\09-IambicІ_-_Beside_You.wav
     Peak level 93.3 %
     Track quality 99.9 %
     Test CRC 8D1DDF19
     Copy CRC 8D1DDF19
     Track not present in AccurateRip database
     Copy OK
Track 10
     Filename H:\Downloads\Rips\IambicІ - As The Snow Fell-2008\10-IambicІ_-_Dust_Below_The_Ground.wav
     Peak level 98.8 %
     Track quality 100.0 %
     Test CRC 0B716EAC
     Copy CRC 0B716EAC
     Track not present in AccurateRip database
     Copy OK
Track 11
     Filename H:\Downloads\Rips\IambicІ - As The Snow Fell-2008\11-IambicІ_-_It_Snowed_The_Day_We_Died.wav
     Peak level 98.8 %
     Track quality 100.0 %
     Test CRC FC2D0782
     Copy CRC FC2D0782
     Track not present in AccurateRip database
     Copy OK
Track 12
     Filename H:\Downloads\Rips\IambicІ - As The Snow Fell-2008\12-IambicІ_-_Summer_Moon.wav
     Peak level 94.4 %
     Track quality 99.9 %
     Test CRC 12197C34
     Copy CRC 12197C34
     Track not present in AccurateRip database
     Copy OK
None of the tracks are present in the AccurateRip database
No errors occurred
End of status report

Отчёт auCDtect Task manager&#58;

-----------------------
DON'T MODIFY THIS FILE
-----------------------
PERFORMER: auCDtect Task Manager, ver. 1.5.1RC6 build 1.5.1.7
Copyright (c) 2008-2010 y-soft. All rights reserved
http://y-soft.org
ANALYZER: auCDtect: CD records authenticity detector, version 0.8.2
Copyright (c) 2004 Oleg Berngardt. All rights reserved.
Copyright (c) 2004 Alexander Djourik. All rights reserved.
FILE: 01. Storm's Theme.flac
  Size: 12521693 Hash: 1E1F4CA89B1633CEA6D261527CAE4B50 Accuracy: -m0
  Conclusion: CDDA 100%
  Signature: 9F250ADC95EE69AFAA32CDAA7712405E5C136952
FILE: 12. Summer Moon.flac
  Size: 22527847 Hash: 5648B39A9C02349524AD27734238D3EE Accuracy: -m0
  Conclusion: CDDA 100%
  Signature: 8E5E6BC3CA33E69B3AE0DEE71A4E0C07DAA98F9E
FILE: 11. It Snowed The Day We Died.flac
  Size: 34439278 Hash: 2FB352C40764073E6396846DB87B2230 Accuracy: -m0
  Conclusion: MPEG 97%
  Signature: AD0333CADDDBFE6610F16CF3702629EE3B062766
FILE: 10. Dust Below The Ground.flac
  Size: 37663259 Hash: A60D3A5D938FE7CBADEAEA3FB887C031 Accuracy: -m0
  Conclusion: CDDA 100%
  Signature: 1A7DED9335FD57A51FF4381633E5EB5D751BF627
FILE: 08. Sleep Cycle.flac
  Size: 46841774 Hash: 4D6BE567265946EB79B958607EDC25C1 Accuracy: -m0
  Conclusion: MPEG 92%
  Signature: A04C9DBA197AD3B95648F4CF1D5D2797BCF2603E
FILE: 07. December's Shadows.flac
  Size: 27308309 Hash: 487623D1111CCCA31F4ED5B8C0D2FF39 Accuracy: -m0
  Conclusion: CDDA 100%
  Signature: 89A0EBFAF08FED689E866AFDD381A3A7D3C74124
FILE: 06. This Day Goes Nowhere.flac
  Size: 29370406 Hash: A5B92A047070D7AA24F3E81388F9DE98 Accuracy: -m0
  Conclusion: CDDA 100%
  Signature: CC3887065A1EDD33BB7D41F4E2DD5F815B22329B
FILE: 05. When Father Cries.flac
  Size: 12460205 Hash: 2D7560912A09C2958C124D1CD6BA4F96 Accuracy: -m0
  Conclusion: MPEG 93%
  Signature: 2921F1FB94980D31C3B2D37BF9D1255B76F3CD7F
FILE: 04. Close Of Day.flac
  Size: 23199838 Hash: E092759FBF43262B6FA46C69C1847907 Accuracy: -m0
  Conclusion: CDDA 100%
  Signature: C3BD8A0BF3717E33F8D005101407004113BF6778
FILE: 03. Night-13.flac
  Size: 29430702 Hash: 566B8F18E363E9DA5872288FB9CD0E24 Accuracy: -m0
  Conclusion: CDDA 100%
  Signature: FF2FC4B2782679A9A00B509474D6C640D3A79ED6
FILE: 02. To Wake, To See.flac
  Size: 33416132 Hash: 6EEE2E3D9FC81FF81D77AAB6EDDE5DC0 Accuracy: -m0
  Conclusion: CDDA 100%
  Signature: 133A31C78E0A1A2C5D84BA75D2BA504D168DC976
-
Яндекс.Метрика
Рейтинг@Mail.ru