[ Сегодня на трекере фрилич! Идет свободное скачивание без начисления Download ]

Kiasmos - Kiasmos (2014) [FLAC|Lossless]<Techno, IDM, Modern Classical, Ambient>

 

Создавать темы 15-Дек-2014 23:05

-Kiasmos Kiasmos- Год: 2014
Издатель (лейбл): Erased Tapes Records
Номер по каталогу: ERATP062
Жанр: Techno, IDM, Modern Classical, Ambient
Продолжительность: 00:50:57
Кодек: FLAC
Битрейт: Lossless
Тип рипа: tracks+.cue
Треклист:
01. Lit (06:25)
02. Held (05:01)
03. Looped (06:01)
04. Swayed (04:24)
05. Thrown (08:59)
06. Dragged (05:01)
07. Bent (05:45)
08. Burnt (09:21)

Отчёт ЕАС&#58;

X Lossless Decoder version 20140504 (147.0)
XLD extraction logfile from 2014-08-19 13:28:09 +0200
Kiasmos / Kiasmos
Used drive : HL-DT-ST DVDRW  GS31N (revision TA17)
Media type : Pressed CD
Ripper mode             : XLD Secure Ripper
Disable audio cache     : OK for the drive with a cache less than 1375KiB
Make use of C2 pointers : NO
Read offset correction  : 667
Max retry count         : 100
Gap status              : Analyzed, Appended (except HTOA)
TOC of the extracted CD
     Track |   Start  |  Length  | Start sector | End sector
    ---------------------------------------------------------
        1  | 00:00:00 | 06:24:57 |         0    |    28856
        2  | 06:24:57 | 05:01:22 |     28857    |    51453
        3  | 11:26:04 | 06:00:53 |     51454    |    78506
        4  | 17:26:57 | 04:23:63 |     78507    |    98294
        5  | 21:50:45 | 08:59:17 |     98295    |   138736
        6  | 30:49:62 | 05:00:49 |    138737    |   161285
        7  | 35:50:36 | 05:45:02 |    161286    |   187162
        8  | 41:35:38 | 09:20:69 |    187163    |   229231
AccurateRip Summary
    Disc not found in AccurateRip DB.
All Tracks
    Album gain               : -5.61 dB
    Peak                     : 1.000000
    Statistics
        Read error                           : 0
        Jitter error (maybe fixed)           : 0
        Retry sector count                   : 0
        Damaged sector count                 : 0
Track 01
    Filename : /Users/guerolito/Desktop/Torrents/Kiasmos - Kiasmos (2014) [FLAC]/01 Lit.flac
               /Users/guerolito/Desktop/Torrents/Kiasmos - Kiasmos (2014) [LAME MP3 (320)]/01 Lit.mp3
               /Users/guerolito/Desktop/Torrents/Kiasmos - Kiasmos (2014) [LAME MP3 (V0)]/01 Lit.mp3
    Pre-gap length : 00:02:00
    Track gain               : -1.65 dB
    Peak                     : 0.965759
    CRC32 hash (test run)    : 7ABBF874
    CRC32 hash               : 7ABBF874
    CRC32 hash (skip zero)   : 08B10361
    AccurateRip v1 signature : 67355CB2
    AccurateRip v2 signature : 182CD7A2
        ->Track not present in AccurateRip database.
    Statistics
        Read error                           : 0
        Jitter error (maybe fixed)           : 0
        Retry sector count                   : 0
        Damaged sector count                 : 0
Track 02
    Filename : /Users/guerolito/Desktop/Torrents/Kiasmos - Kiasmos (2014) [FLAC]/02 Held.flac
               /Users/guerolito/Desktop/Torrents/Kiasmos - Kiasmos (2014) [LAME MP3 (320)]/02 Held.mp3
               /Users/guerolito/Desktop/Torrents/Kiasmos - Kiasmos (2014) [LAME MP3 (V0)]/02 Held.mp3
    Track gain               : -5.32 dB
    Peak                     : 0.967407
    CRC32 hash (test run)    : 78635218
    CRC32 hash               : 78635218
    CRC32 hash (skip zero)   : BFC15B4A
    AccurateRip v1 signature : B89A59C3
    AccurateRip v2 signature : A0C12A45
        ->Track not present in AccurateRip database.
    Statistics
        Read error                           : 0
        Jitter error (maybe fixed)           : 0
        Retry sector count                   : 0
        Damaged sector count                 : 0
Track 03
    Filename : /Users/guerolito/Desktop/Torrents/Kiasmos - Kiasmos (2014) [FLAC]/03 Looped.flac
               /Users/guerolito/Desktop/Torrents/Kiasmos - Kiasmos (2014) [LAME MP3 (320)]/03 Looped.mp3
               /Users/guerolito/Desktop/Torrents/Kiasmos - Kiasmos (2014) [LAME MP3 (V0)]/03 Looped.mp3
    Track gain               : -4.36 dB
    Peak                     : 0.976532
    CRC32 hash (test run)    : F81C2407
    CRC32 hash               : F81C2407
    CRC32 hash (skip zero)   : 6BE24DD0
    AccurateRip v1 signature : 9FDC043C
    AccurateRip v2 signature : E6010232
        ->Track not present in AccurateRip database.
    Statistics
        Read error                           : 0
        Jitter error (maybe fixed)           : 0
        Retry sector count                   : 0
        Damaged sector count                 : 0
Track 04
    Filename : /Users/guerolito/Desktop/Torrents/Kiasmos - Kiasmos (2014) [FLAC]/04 Swayed.flac
               /Users/guerolito/Desktop/Torrents/Kiasmos - Kiasmos (2014) [LAME MP3 (320)]/04 Swayed.mp3
               /Users/guerolito/Desktop/Torrents/Kiasmos - Kiasmos (2014) [LAME MP3 (V0)]/04 Swayed.mp3
    Track gain               : -5.13 dB
    Peak                     : 0.966248
    CRC32 hash (test run)    : 858DC98A
    CRC32 hash               : 858DC98A
    CRC32 hash (skip zero)   : 00151A86
    AccurateRip v1 signature : F2F60A29
    AccurateRip v2 signature : 02CF8104
        ->Track not present in AccurateRip database.
    Statistics
        Read error                           : 0
        Jitter error (maybe fixed)           : 0
        Retry sector count                   : 0
        Damaged sector count                 : 0
Track 05
    Filename : /Users/guerolito/Desktop/Torrents/Kiasmos - Kiasmos (2014) [FLAC]/05 Thrown.flac
               /Users/guerolito/Desktop/Torrents/Kiasmos - Kiasmos (2014) [LAME MP3 (320)]/05 Thrown.mp3
               /Users/guerolito/Desktop/Torrents/Kiasmos - Kiasmos (2014) [LAME MP3 (V0)]/05 Thrown.mp3
    Track gain               : -5.00 dB
    Peak                     : 1.000000
    CRC32 hash (test run)    : 980FB765
    CRC32 hash               : 980FB765
    CRC32 hash (skip zero)   : 14A3552E
    AccurateRip v1 signature : 33BB721E
    AccurateRip v2 signature : B098351A
        ->Track not present in AccurateRip database.
    Statistics
        Read error                           : 0
        Jitter error (maybe fixed)           : 0
        Retry sector count                   : 0
        Damaged sector count                 : 0
Track 06
    Filename : /Users/guerolito/Desktop/Torrents/Kiasmos - Kiasmos (2014) [FLAC]/06 Dragged.flac
               /Users/guerolito/Desktop/Torrents/Kiasmos - Kiasmos (2014) [LAME MP3 (320)]/06 Dragged.mp3
               /Users/guerolito/Desktop/Torrents/Kiasmos - Kiasmos (2014) [LAME MP3 (V0)]/06 Dragged.mp3
    Track gain               : -6.34 dB
    Peak                     : 0.966827
    CRC32 hash (test run)    : 857924E0
    CRC32 hash               : 857924E0
    CRC32 hash (skip zero)   : D5ECE051
    AccurateRip v1 signature : AA078FD1
    AccurateRip v2 signature : 4D0FFBDB
        ->Track not present in AccurateRip database.
    Statistics
        Read error                           : 0
        Jitter error (maybe fixed)           : 0
        Retry sector count                   : 0
        Damaged sector count                 : 0
Track 07
    Filename : /Users/guerolito/Desktop/Torrents/Kiasmos - Kiasmos (2014) [FLAC]/07 Bent.flac
               /Users/guerolito/Desktop/Torrents/Kiasmos - Kiasmos (2014) [LAME MP3 (320)]/07 Bent.mp3
               /Users/guerolito/Desktop/Torrents/Kiasmos - Kiasmos (2014) [LAME MP3 (V0)]/07 Bent.mp3
    Track gain               : -6.36 dB
    Peak                     : 0.967285
    CRC32 hash (test run)    : C902983E
    CRC32 hash               : C902983E
    CRC32 hash (skip zero)   : CA009C75
    AccurateRip v1 signature : 61BF8F4A
    AccurateRip v2 signature : E92FA906
        ->Track not present in AccurateRip database.
    Statistics
        Read error                           : 0
        Jitter error (maybe fixed)           : 0
        Retry sector count                   : 0
        Damaged sector count                 : 0
Track 08
    Filename : /Users/guerolito/Desktop/Torrents/Kiasmos - Kiasmos (2014) [FLAC]/08 Burnt.flac
               /Users/guerolito/Desktop/Torrents/Kiasmos - Kiasmos (2014) [LAME MP3 (320)]/08 Burnt.mp3
               /Users/guerolito/Desktop/Torrents/Kiasmos - Kiasmos (2014) [LAME MP3 (V0)]/08 Burnt.mp3
    Track gain               : -6.25 dB
    Peak                     : 0.967163
    CRC32 hash (test run)    : 473911BA
    CRC32 hash               : 473911BA
    CRC32 hash (skip zero)   : 830EE1C5
    AccurateRip v1 signature : A789042E
    AccurateRip v2 signature : DB6BA111
        ->Track not present in AccurateRip database.
    Statistics
        Read error                           : 0
        Jitter error (maybe fixed)           : 0
        Retry sector count                   : 0
        Damaged sector count                 : 0
No errors occurred
End of status report
-----BEGIN XLD SIGNATURE-----
n3Utf5r5XlBIY8qkTdy5gRxAjWL9z2JuV8ANF.xdPOXVLPQxxo8KawWR9NzFD60N4.xhLuN_lTHq.6RovKOdLzVXGmyeScWv6ypcNNu
-----END XLD SIGNATURE-----

Отчёт auCDtect Task manager&#58;

-----------------------
DON'T MODIFY THIS FILE
-----------------------
PERFORMER: auCDtect Task Manager, ver. 1.5.1RC6 build 1.5.1.7
Copyright (c) 2008-2010 y-soft. All rights reserved
http://y-soft.org
ANALYZER: auCDtect: CD records authenticity detector, version 0.8.2
Copyright (c) 2004 Oleg Berngardt. All rights reserved.
Copyright (c) 2004 Alexander Djourik. All rights reserved.
FILE: 01 Lit.flac
  Size: 32891960 Hash: F70A23A7AE31C509489972EA76FD9026 Accuracy: -m0
  Conclusion: CDDA 100%
  Signature: 6E06FCAFB8F04C9164A9B2AF348FDE3A322B6F04
FILE: 08 Burnt.flac
  Size: 46381408 Hash: 53F156D0DFE982684E2879CCD410C817 Accuracy: -m0
  Conclusion: CDDA 100%
  Signature: 2F40F9003FF3DDCD8CCBCE0FAD14218289502F76
FILE: 07 Bent.flac
  Size: 34309910 Hash: 9609C250B2C9EE9CD159F20D4E8B60DD Accuracy: -m0
  Conclusion: CDDA 100%
  Signature: 29DFB4CCA08B717C499ABC151EC357B7F2CE4C17
FILE: 06 Dragged.flac
  Size: 28424920 Hash: 2FC392644D4B0D0857A164816430C344 Accuracy: -m0
  Conclusion: CDDA 100%
  Signature: EAEC15F830E356590BCC58C33218386CF9F8D96A
FILE: 05 Thrown.flac
  Size: 47850225 Hash: 9E0B116AD83E2C7E3FD0CF84010D47AD Accuracy: -m0
  Conclusion: CDDA 100%
  Signature: 41290BBEA3A50AB85B0DB6E085D2F638BFF43A8E
FILE: 04 Swayed.flac
  Size: 24225578 Hash: E711092BD2FA27F80B7B67C97432BA32 Accuracy: -m0
  Conclusion: CDDA 100%
  Signature: D72272D8A7193F928055313DC7D4BB0E8CB6DBDB
FILE: 03 Looped.flac
  Size: 32716268 Hash: 5ABF70471E54E1DE1D6BF960F3CFD2E6 Accuracy: -m0
  Conclusion: CDDA 100%
  Signature: 7D903070C17EC591C7F73BA616AE337A6650F9C2
FILE: 02 Held.flac
  Size: 25582415 Hash: 21A4C6446263EE56B73E4C7DBDBE0DDF Accuracy: -m0
  Conclusion: CDDA 100%
  Signature: A29576C6A8FAEC28428604AAB6EB801E63B0A9C8
Время раздачи: 12|7
Яндекс.Метрика
Рейтинг@Mail.ru