[ Сегодня на трекере фрилич! Идет свободное скачивание без начисления Download ]

Dreamstalker - Digital Illusions (2012) (WEB, #ARDEP10) [FLAC|Lossless]<Psybient, Psyсhill>

 

Создавать темы 15-Дек-2014 23:05

-Dreamstalker - Digital Illusions (2012)- Жанр: Psybient, Psyсhill
Страна-производитель: Canada
Год издания: 2012
Издатель (лейбл): Altar Records
Номер по каталогу: #ARDEP10
Аудиокодек: FLAC (*.flac)
Тип: tracks
Битрейт аудио: lossless
Продолжительность: 01:32:09
Источник (релизер): israbox
Наличие сканов в содержимом раздачи: нет
Трек лист:
01. Dive In Digital Illusion (00:43)
02. Digital Illusions (07:20)
03. Data Stream (06:52)
04. Fractal Failure (07:38)
05. Pulse Of The Past (05:39)
06. Second Trip to Kair (07:11)
07. Morning Sun (07:11)
08. Ecstasy Journey (07:44)
09. Endless Time (08:20)
10. BONUS - Full Continuous Mix (55:26)

10. BONUS - Full continuous mix .CUE&#58;

PERFORMER "Dreamstalker"
TITLE "Digital Illusions (Full Continuous Mix)"
FILE "10. BONUS - Full continuous mix.flac" FLAC
  TRACK 01 AUDIO
    PERFORMER "Dreamstalker"
    TITLE "Dive In Digital Illusion"
    INDEX 01 00:00:00
  TRACK 02 AUDIO
    PERFORMER "Dreamstalker"
    TITLE "Digital Illusions"
    INDEX 01 00:37:71
  TRACK 03 AUDIO
    PERFORMER "Dreamstalker"
    TITLE "Data Stream"
    INDEX 01 07:39:43
  TRACK 04 AUDIO
    PERFORMER "Dreamstalker"
    TITLE "Pulse Of The Past"
    INDEX 01 14:07:44
  TRACK 05 AUDIO
    PERFORMER "Dreamstalker"
    TITLE "Fractal Failure"
    INDEX 01 19:19:03
  TRACK 06 AUDIO
    PERFORMER "Dreamstalker"
    TITLE "Second Trip to Kair"
    INDEX 01 26:40:32
  TRACK 07 AUDIO
    PERFORMER "Dreamstalker"
    TITLE "Morning Sun"
    INDEX 01 33:51:53
  TRACK 08 AUDIO
    PERFORMER "Dreamstalker"
    TITLE "Ecstasy Journey"
    INDEX 01 40:16:65
  TRACK 09 AUDIO
    PERFORMER "Dreamstalker"
    TITLE "Endless Time"
    INDEX 01 47:37:02

Отчёт auCDtect Task manager&#58;

-----------------------
DON'T MODIFY THIS FILE
-----------------------
PERFORMER: auCDtect Task Manager, ver. 1.5.1RC6 build 1.5.1.7
Copyright (c) 2008-2010 y-soft. All rights reserved
http://y-soft.org
ANALYZER: auCDtect: CD records authenticity detector, version 0.8.2
Copyright (c) 2004 Oleg Berngardt. All rights reserved.
Copyright (c) 2004 Alexander Djourik. All rights reserved.
FILE: 10. BONUS - Full continuous mix.flac
  Size: 260824577 Hash: F710DD4C8060BAC6B05F66CDF81137CB Accuracy: -m0
  Conclusion: CDDA 100%
  Signature: DE2E0059D8663AA75343E7EE6B9023A8D3421F8D
FILE: 09. Dreamstalker - Endless Time.flac
  Size: 41794401 Hash: E2B69D6A2728D3F805F3CFC724FF7E71 Accuracy: -m0
  Conclusion: MPEG 95%
  Signature: 64966F55C2A2A21AF3B738FE48C89E674B312CA7
FILE: 08. Dreamstalker - Ecstasy Journey.flac
  Size: 38442712 Hash: C09782B736961DAEF64AD8054F84180C Accuracy: -m0
  Conclusion: CDDA 100%
  Signature: 090F2BF5E636713C2B29972B149138EF151FA894
FILE: 07. Dreamstalker - Morning Sun.flac
  Size: 32079752 Hash: 12DC411BC0C845CD75BC250A47FB835C Accuracy: -m0
  Conclusion: CDDA 54%
  Signature: 0D92EE84C9BDE62A9403B7DCABF133514343A47B
FILE: 06. Dreamstalker - Second Trip to Kair.flac
  Size: 37452175 Hash: 43D84E89F958326BA49B1B4255020C4B Accuracy: -m0
  Conclusion: MPEG 95%
  Signature: 8940DF4AF68712AF5C5185DD0EF756BC068B7C3F
FILE: 05. Dreamstalker - Pulse Of The Past.flac
  Size: 28517151 Hash: 896124A4CB3B8E9D3196AE796B235737 Accuracy: -m0
  Conclusion: CDDA 100%
  Signature: F2F4FD967032FF058C235C48ED729E777BDF1FDD
FILE: 04. Dreamstalker - Fractal Failure.flac
  Size: 31341651 Hash: D57DBF7EBB31D496E1D15346449F15F0 Accuracy: -m0
  Conclusion: CDDA 100%
  Signature: EF2D3B2A867F3DAE74B66B9FA52A2583A6E826FA
FILE: 03. Dreamstalker - Data Stream.flac
  Size: 37248847 Hash: 3DE6257D96FB196E765CFB11A1928F2F Accuracy: -m0
  Conclusion: MPEG 95%
  Signature: 28CBD34044217DDB55D4DC241121F700D99B401F
FILE: 02. Dreamstalker - Digital Illusions.flac
  Size: 35355644 Hash: D9577A6C47F7C691BA01600EC2BF655D Accuracy: -m0
  Conclusion: CDDA 87%
  Signature: D6894FC63748D65295CCB09B84B2EA8D72FB4DC1
FILE: 01. Dreamstalker - Dive In Digital Illusion.flac
  Size: 3935177 Hash: F133880A2EB20C227BCD246A00FB4B06 Accuracy: -m0
  Conclusion: CDDA 87%
  Signature: CE139E388AD07EE206168D87D4B235A227676839
Время раздачи: 9:00 - 24:00
Яндекс.Метрика
Рейтинг@Mail.ru