Schiller - Symphonia (2014) [FLAC|Lossless]<Ambient , Downtempo , Trance>

 

Создавать темы 15-Дек-2014 23:05

-Schiller - Symphonia (2014)
-


Год: 2014
Жанр: Ambient , Downtempo , Trance
Продолжительность: 01:56:41
Лейбл: We Love Music/Universal Music
Каталог №: 00289 4793946 7
Тип рипа: image+.cue
Кодек: FLAC
Битрейт: Lossless-CD1. Треклист:


Трек лист:
01. Tune In (0:40)
02. Berlin Bombay (5:01)
03. Ein Schoener Tag (mit Eva Mali) (5:36)
04. Hochland (4:29)
05. Playing With Madness (5:20)
06. Lichtermeer (4:16)
07. Schiller (5:41)
08. Desert Empire (5:09)
09. Ruhe (4:40)
10. Sehnsucht (Instrumental) (6:22)
11. Sehnsucht: Reprise (1:12)
Продолжительность: 00:48:26

Отчёт ЕАС&#58;

Exact Audio Copy V1.0 beta 3 from 29. August 2011
EAC extraction logfile from 17. October 2014, 17:01
Schiller / Symphonia
Used drive  : TSSTcorpCD/DVDW TS-L632D   Adapter: 0  ID: 0
Read mode               : Secure
Utilize accurate stream : Yes
Defeat audio cache      : Yes
Make use of C2 pointers : No
Read offset correction                      : 6
Overread into Lead-In and Lead-Out          : No
Fill up missing offset samples with silence : Yes
Delete leading and trailing silent blocks   : No
Null samples used in CRC calculations       : Yes
Used interface                              : Native Win32 interface for Win NT & 2000
Used output format              : User Defined Encoder
Selected bitrate                : 896 kBit/s
Quality                         : High
Add ID3 tag                     : No
Command line compressor         : C:\Program Files (x86)\Exact Audio Copy\Flac\flac.exe
Additional command line options : -8 -V -T "Date=%year%" -T "Genre=%genre%" -T "COMMENT=ripped by sewerok®" %source%
TOC of the extracted CD
     Track |   Start  |  Length  | Start sector | End sector
    ---------------------------------------------------------
        1  |  0:00.00 |  0:40.28 |         0    |     3027
        2  |  0:40.28 |  5:00.74 |      3028    |    25601
        3  |  5:41.27 |  5:36.09 |     25602    |    50810
        4  | 11:17.36 |  4:29.73 |     50811    |    71058
        5  | 15:47.34 |  5:20.23 |     71059    |    95081
        6  | 21:07.57 |  4:16.42 |     95082    |   114323
        7  | 25:24.24 |  5:41.52 |    114324    |   139950
        8  | 31:06.01 |  5:09.65 |    139951    |   163190
        9  | 36:15.66 |  4:40.39 |    163191    |   184229
       10  | 40:56.30 |  6:22.69 |    184230    |   212948
       11  | 47:19.24 |  1:12.45 |    212949    |   218393
Range status and errors
Selected range
     Filename D:\Schiller - Symphonia [2014](We Love Music - Universal Music 00289 4793946 7 EU)\CD 1\Schiller - Symphonia.wav
     Peak level 99.9 %
     Extraction speed 1.7 X
     Range quality 100.0 %
     Test CRC B8F022F0
     Copy CRC B8F022F0
     Copy OK
No errors occurred
AccurateRip summary
Track  1  not present in database
Track  2  not present in database
Track  3  not present in database
Track  4  not present in database
Track  5  not present in database
Track  6  not present in database
Track  7  not present in database
Track  8  not present in database
Track  9  not present in database
Track 10  not present in database
Track 11  not present in database
None of the tracks are present in the AccurateRip database
End of status report
---- CUETools DB Plugin V2.1.4
[CTDB TOCID: IuEGHEE3rES2gXuK5W_c0Er_h5A-] disk not present in database
Submit result: IuEGHEE3rES2gXuK5W_c0Er_h5A- has been uploaded
==== Log checksum 164A73430408956B6DB902B121584B358DFA8EBD7B99C90D8201768D0890C666 ====

Отчёт auCDtect Task manager&#58;

-----------------------
DON'T MODIFY THIS FILE
-----------------------
PERFORMER: auCDtect Task Manager, ver. 1.6.0 RC1 build 1.6.0.1
Copyright (c) 2008-2010 y-soft. All rights reserved
http://y-soft.org
ANALYZER: auCDtect: CD records authenticity detector, version 0.8.2
Copyright (c) 2004 Oleg Berngardt. All rights reserved.
Copyright (c) 2004 Alexander Djourik. All rights reserved.
FILE: Schiller - Symphonia.flac
  Size: 316630796 Hash: C99A93C6889397BB66D972D16CCB340C Accuracy: -m0
  Conclusion: CDDA 100%
  Signature: B5F1B872A6C2D7FD430071C5D1C3871B7474FC55
-
CD2. Треклист:
01. Sommernacht (4:59)
02. Berlin Moskau (5:41)
03. Tired (mit Jael) (5:15)
04. Leben... I Feel You (Instrumental) (1:53)
05. Tiefblau (5:17)
06. Solveig's Song (mit Eva Mali) (4:43)
07. Let It Rise (mit Midge Ure) (4:56)
08. White (1:49)
09. Das Glockenspiel (5:09)
10. Sonne (mit Unheilig) (6:29)
11. Nachtflug (6:54)
12. Vienna (mit Midge Ure) (5:20)
13. Berlin Berlin (4:43)
Продолжительность: 01:03:08

Отчёт ЕАС&#58;

Exact Audio Copy V1.0 beta 3 from 29. August 2011
EAC extraction logfile from 17. October 2014, 18:42
Schiller / Symphonia
Used drive  : TSSTcorpCD/DVDW TS-L632D   Adapter: 0  ID: 0
Read mode               : Secure
Utilize accurate stream : Yes
Defeat audio cache      : Yes
Make use of C2 pointers : No
Read offset correction                      : 6
Overread into Lead-In and Lead-Out          : No
Fill up missing offset samples with silence : Yes
Delete leading and trailing silent blocks   : No
Null samples used in CRC calculations       : Yes
Used interface                              : Native Win32 interface for Win NT & 2000
Used output format              : User Defined Encoder
Selected bitrate                : 896 kBit/s
Quality                         : High
Add ID3 tag                     : No
Command line compressor         : C:\Program Files (x86)\Exact Audio Copy\Flac\flac.exe
Additional command line options : -8 -V -T "Date=%year%" -T "Genre=%genre%" -T "COMMENT=ripped by sewerok®" %source%
TOC of the extracted CD
     Track |   Start  |  Length  | Start sector | End sector
    ---------------------------------------------------------
        1  |  0:00.00 |  4:59.58 |         0    |    22482
        2  |  4:59.58 |  5:41.38 |     22483    |    48095
        3  | 10:41.21 |  5:15.07 |     48096    |    71727
        4  | 15:56.28 |  1:53.62 |     71728    |    80264
        5  | 17:50.15 |  5:17.21 |     80265    |   104060
        6  | 23:07.36 |  4:43.58 |    104061    |   125343
        7  | 27:51.19 |  4:56.35 |    125344    |   147578
        8  | 32:47.54 |  1:49.00 |    147579    |   155753
        9  | 34:36.54 |  5:09.66 |    155754    |   178994
       10  | 39:46.45 |  6:29.61 |    178995    |   208230
       11  | 46:16.31 |  6:54.73 |    208231    |   239353
       12  | 53:11.29 |  5:20.23 |    239354    |   263376
       13  | 58:31.52 |  4:43.68 |    263377    |   284669
Range status and errors
Selected range
     Filename D:\Schiller - Symphonia [2014](We Love Music - Universal Music 00289 4793946 7 EU)\CD 2\Schiller - Symphonia.wav
     Peak level 99.9 %
     Extraction speed 1.1 X
     Range quality 99.9 %
     Test CRC 487DB87E
     Copy CRC 487DB87E
     Copy OK
No errors occurred
AccurateRip summary
Track  1  not present in database
Track  2  not present in database
Track  3  not present in database
Track  4  not present in database
Track  5  not present in database
Track  6  not present in database
Track  7  not present in database
Track  8  not present in database
Track  9  not present in database
Track 10  not present in database
Track 11  not present in database
Track 12  not present in database
Track 13  not present in database
None of the tracks are present in the AccurateRip database
End of status report
---- CUETools DB Plugin V2.1.4
[CTDB TOCID: 2cirz_TqcYuNk0K1VGNVtBkunHM-] disk not present in database
Submit result: 2cirz_TqcYuNk0K1VGNVtBkunHM- has been uploaded
==== Log checksum C42D6773CE8271B14CE0F96BC3F257511D819ED2DEF00452771F9CE6B9CC7CFD ====

Отчёт auCDtect Task manager&#58;

-----------------------
DON'T MODIFY THIS FILE
-----------------------
PERFORMER: auCDtect Task Manager, ver. 1.6.0 RC1 build 1.6.0.1
Copyright (c) 2008-2010 y-soft. All rights reserved
http://y-soft.org
ANALYZER: auCDtect: CD records authenticity detector, version 0.8.2
Copyright (c) 2004 Oleg Berngardt. All rights reserved.
Copyright (c) 2004 Alexander Djourik. All rights reserved.
FILE: Schiller - Symphonia.flac
  Size: 408698392 Hash: B427B11B80E076AB6253F83C96D409A1 Accuracy: -m0
  Conclusion: CDDA 100%
  Signature: F729342F1A0A3639ECDB66B76415876D079B9886
-

Создавать темы 11-Янв-2015 12:30 (спустя 26 дней)

Шиллер, м-м-м, ништяк )))
Яндекс.Метрика
Рейтинг@Mail.ru