[ Сегодня на трекере фрилич! Идет свободное скачивание без начисления Download ]

Samaris - 2 Albums & 2 EPs (2011 - 2014) [FLAC|Lossless] <Modern Classical, Downtempo, IDM, Bass, Dub>

 

Создавать темы 15-Дек-2014 23:05

-Samaris - Releases (2011 - 2014)--Год: 2011 - 2014 | Жанр: Modern Classical, Downtempo, IDM, Bass, Dub
Продолжительность: 02:40:33
Кодек: FLAC | Битрейт: Lossless
--Samaris - Samaris (2013)-- Год выпуска: 2013
Лейбл: 12 Tonar
Каталог#: 12TO56
Тир Рипа:tracks+.cue+log
Прoдолжительность: 00:53:16
Треклиcт:

01. Hljoma Pu (03:51)
02. Viltu Vitrast (03:57)
03. Goda Tungl (04:11)
04. Stofnar Falla (04:49)
05. Voggudub (04:51)
06. Solhvorf I (03:37)
07. Solhvorf II (04:29)
08. Kaelan Mikla (04:11)
09. Hljoma Pu (Muted Remix) (04:45)
10. Viltu Vitrast (Futuregrapher Remix) (03:48)
11. Goda Tungl (DJ Arfi Remix) (03:57)
12. Stofnar Falla (Subminimal Remix) (06:50)

Отчет EAC&#58;

Exact Audio Copy V1.0 beta 3 from 29. August 2011
EAC extraction logfile from 5. July 2013, 14:21
Samaris / Samaris
Used drive  : PLEXTOR DVDR   PX-760A   Adapter: 3  ID: 0
Read mode               : Secure
Utilize accurate stream : Yes
Defeat audio cache      : Yes
Make use of C2 pointers : No
Read offset correction                      : 30
Overread into Lead-In and Lead-Out          : Yes
Fill up missing offset samples with silence : Yes
Delete leading and trailing silent blocks   : No
Null samples used in CRC calculations       : Yes
Used interface                              : Native Win32 interface for Win NT & 2000
Gap handling                                : Appended to previous track
Used output format              : User Defined Encoder
Selected bitrate                : 1024 kBit/s
Quality                         : High
Add ID3 tag                     : No
Command line compressor         : C:\Program Files (x86)\Exact Audio Copy\Flac\flac.exe
Additional command line options : -8 -V -T "ARTIST=%artist%" -T "TITLE=%title%" -T "ALBUM=%albumtitle%" -T "DATE=%year%" -T "TRACKNUMBER=%tracknr%" -T "GENRE=%genre%" -T "PERFORMER=%albuminterpret%" -T "COMPOSER=%composer%" %haslyrics%--tag-from-file=LYRICS="%lyricsfile%"%haslyrics% -T "ALBUMARTIST=%albumartist%" -T "ALBUM ARTIST=%albumartist%" -T "DISCNUMBER=%cdnumber%" -T "TOTALDISCS=%totalcds%" -T "TOTALTRACKS=%numtracks%" -T "COMMENT=%comment%" %source% -o %dest%
TOC of the extracted CD
     Track |   Start  |  Length  | Start sector | End sector
    ---------------------------------------------------------
        1  |  0:00.00 |  3:51.30 |         0    |    17354
        2  |  3:51.30 |  3:56.53 |     17355    |    35107
        3  |  7:48.08 |  4:10.50 |     35108    |    53907
        4  | 11:58.58 |  4:49.04 |     53908    |    75586
        5  | 16:47.62 |  4:51.09 |     75587    |    97420
        6  | 21:38.71 |  3:36.71 |     97421    |   113691
        7  | 25:15.67 |  4:28.72 |    113692    |   133863
        8  | 29:44.64 |  4:11.21 |    133864    |   152709
        9  | 33:56.10 |  4:45.34 |    152710    |   174118
       10  | 38:41.44 |  3:48.04 |    174119    |   191222
       11  | 42:29.48 |  3:56.70 |    191223    |   208992
       12  | 46:26.43 |  6:50.05 |    208993    |   239747
Track  1
     Filename C:\EACRips\01 Hljóma Þú.wav
     Pre-gap length  0:00:02.00
     Peak level 98.8 %
     Extraction speed 1.5 X
     Track quality 99.9 %
     Test CRC 8404F84D
     Copy CRC 8404F84D
     Track not present in AccurateRip database
     Copy OK
Track  2
     Filename C:\EACRips\02 Viltu Vitrast.wav
     Peak level 98.8 %
     Extraction speed 1.5 X
     Track quality 99.9 %
     Test CRC 7908A49B
     Copy CRC 7908A49B
     Track not present in AccurateRip database
     Copy OK
Track  3
     Filename C:\EACRips\03 Góða Tungl.wav
     Peak level 98.8 %
     Extraction speed 1.5 X
     Track quality 99.9 %
     Test CRC 02AE8315
     Copy CRC 02AE8315
     Track not present in AccurateRip database
     Copy OK
Track  4
     Filename C:\EACRips\04 Stofnar Falla.wav
     Peak level 98.8 %
     Extraction speed 2.2 X
     Track quality 100.0 %
     Test CRC A2BEBE69
     Copy CRC A2BEBE69
     Track not present in AccurateRip database
     Copy OK
Track  5
     Filename C:\EACRips\05 Vöggudub.wav
     Peak level 98.8 %
     Extraction speed 2.2 X
     Track quality 100.0 %
     Test CRC DFC57583
     Copy CRC DFC57583
     Track not present in AccurateRip database
     Copy OK
Track  6
     Filename C:\EACRips\06 Sólhvörf I.wav
     Peak level 98.8 %
     Extraction speed 2.1 X
     Track quality 100.0 %
     Test CRC 871AB74A
     Copy CRC 871AB74A
     Track not present in AccurateRip database
     Copy OK
Track  7
     Filename C:\EACRips\07 Sólhvörf II.wav
     Peak level 98.8 %
     Extraction speed 2.2 X
     Track quality 100.0 %
     Test CRC 9316E372
     Copy CRC 9316E372
     Track not present in AccurateRip database
     Copy OK
Track  8
     Filename C:\EACRips\08 Kælan Mikla.wav
     Peak level 98.8 %
     Extraction speed 2.2 X
     Track quality 100.0 %
     Test CRC 4BF48787
     Copy CRC 4BF48787
     Track not present in AccurateRip database
     Copy OK
Track  9
     Filename C:\EACRips\09 Hljóma Þú (Muted Remix).wav
     Peak level 98.8 %
     Extraction speed 2.2 X
     Track quality 100.0 %
     Test CRC 4C12F4B5
     Copy CRC 4C12F4B5
     Track not present in AccurateRip database
     Copy OK
Track 10
     Filename C:\EACRips\10 Viltu Vitrast (Futuregrapher Remix).wav
     Peak level 98.8 %
     Extraction speed 1.5 X
     Track quality 99.9 %
     Test CRC FFE1BC52
     Copy CRC FFE1BC52
     Track not present in AccurateRip database
     Copy OK
Track 11
     Filename C:\EACRips\11 Góða Tungl (DJ Arfi Remix).wav
     Peak level 98.8 %
     Extraction speed 2.1 X
     Track quality 100.0 %
     Test CRC 8C489DD7
     Copy CRC 8C489DD7
     Track not present in AccurateRip database
     Copy OK
Track 12
     Filename C:\EACRips\12 Stofnar Falla (Subminimal Remix).wav
     Peak level 98.8 %
     Extraction speed 2.5 X
     Track quality 100.0 %
     Test CRC 27A3542E
     Copy CRC 27A3542E
     Track not present in AccurateRip database
     Copy OK
None of the tracks are present in the AccurateRip database
No errors occurred
End of status report
---- CUETools DB Plugin V2.1.3
[CTDB TOCID: wm0wjKa.646.Ww3fE7xGXzqONb0-] disk not present in database, Submit result: wm0wjKa.646.Ww3fE7xGXzqONb0- has been uploaded
==== Log checksum 52AC4222B39611BE838B9CDD89B02416A86B7E0FABF38CA14AB7D681C4599F32 ====

Отчет auCDtect Task manager&#58;

-----------------------
DON'T MODIFY THIS FILE
-----------------------
PERFORMER: auCDtect Task Manager, ver. 1.6.0 RC1 build 1.6.0.1
Copyright (c) 2008-2010 y-soft. All rights reserved
http://y-soft.org
ANALYZER: auCDtect: CD records authenticity detector, version 0.8.2
Copyright (c) 2004 Oleg Berngardt. All rights reserved.
Copyright (c) 2004 Alexander Djourik. All rights reserved.
FILE: 12 - Stofnar Falla (Subminimal Remix).flac
  Size: 38907211 Hash: 0D55C9325FA83C563CC5E9F6E7378514 Accuracy: -m0
  Conclusion: CDDA 100%
  Signature: BEA604220A3512A6112DC2E7C26C8AC3BBB9C541
FILE: 11 - Goda Tungl (DJ Arfi Remix).flac
  Size: 20073915 Hash: B5293D23F37061E01D118BEF572D5732 Accuracy: -m0
  Conclusion: CDDA 100%
  Signature: 723A2901C82D2C3158DB0C0F93FCBB94C7D32F04
FILE: 10 - Viltu Vitrast (Futuregrapher Remix).flac
  Size: 23513824 Hash: 82FAC512E0396CCBC928D74351BF52E8 Accuracy: -m0
  Conclusion: CDDA 100%
  Signature: 27EF933A28621F030DFC34D515E023A0AFE1109B
FILE: 09 - Hljoma pu (Muted Remix).flac
  Size: 27410147 Hash: 0E78602BE40C99AC658DC9901AAE1D2C Accuracy: -m0
  Conclusion: CDDA 100%
  Signature: BF13B89DFB1D5851271C2D265BEAF3B658FC29B8
FILE: 08 - Kaelan Mikla.flac
  Size: 23157307 Hash: FBB622255EFE2450A9C322E9A1FEF471 Accuracy: -m0
  Conclusion: CDDA 100%
  Signature: E8586AD1F4D79FF28A7C96D37051D8C554F1162F
FILE: 07 - Solhvorf II.flac
  Size: 22975258 Hash: BB670E51DAF329243815308D9CD89C02 Accuracy: -m0
  Conclusion: CDDA 100%
  Signature: 095FCDDD9C0E7C926BA4EC57B707875D88437516
FILE: 06 - Solhvorf I.flac
  Size: 17650255 Hash: 5995AB00031967B13079187FAC4BA691 Accuracy: -m0
  Conclusion: CDDA 100%
  Signature: 20128F7D3C350183E7F20BA0AF47F6DE20517251
FILE: 05 - Voggudub.flac
  Size: 24919649 Hash: 5C1DFA635A799E5B01363EF620038A67 Accuracy: -m0
  Conclusion: CDDA 100%
  Signature: DA95112B83263491D18587EF440AEBE94B97C54E
FILE: 04 - Stofnar Falla.flac
  Size: 24878572 Hash: 330E2747EE498C4171F97CFCB059FAF7 Accuracy: -m0
  Conclusion: CDDA 100%
  Signature: E16704B477A79C0E8352EDDEA3AD18726F8B0AC0
FILE: 03 - Goda Tungl.flac
  Size: 23517928 Hash: 2C8FAB46CAA8DAC7547CA96FA55A36E6 Accuracy: -m0
  Conclusion: CDDA 100%
  Signature: 045021BD5FD425F41ECD16DC7135D43E01F86698
FILE: 02 - Viltu Vitrast.flac
  Size: 20006477 Hash: 72B91C3061A838378D1F61D6F0E71CFB Accuracy: -m0
  Conclusion: CDDA 99%
  Signature: CEFD2D12A99B745D6911DE6837334DB8A4680E83
FILE: 01 - Hljoma pu.flac
  Size: 21009948 Hash: 4E071AF433C74C0E3F9E10ECF69A712F Accuracy: -m0
  Conclusion: CDDA 100%
  Signature: 5BF05AF9F542F263EF79AC7901E5FBA079372867

Содержание индексной карты .Cue&#58;

REM GENRE "Modern Classical"
REM DATE 2013
PERFORMER "Samaris"
TITLE "Samaris"
FILE "01 - Hljoma pu.flac" WAVE
  TRACK 01 AUDIO
    TITLE "Hljóma Þú"
    PERFORMER "Samaris"
    INDEX 01 00:00:00
FILE "02 - Viltu Vitrast.flac" WAVE
  TRACK 02 AUDIO
    TITLE "Viltu Vitrast"
    PERFORMER "Samaris"
    INDEX 01 00:00:00
FILE "03 - Goda Tungl.flac" WAVE
  TRACK 03 AUDIO
    TITLE "Góða Tungl"
    PERFORMER "Samaris"
    INDEX 01 00:00:00
FILE "04 - Stofnar Falla.flac" WAVE
  TRACK 04 AUDIO
    TITLE "Stofnar Falla"
    PERFORMER "Samaris"
    INDEX 01 00:00:00
FILE "05 - Voggudub.flac" WAVE
  TRACK 05 AUDIO
    TITLE "Vöggudub"
    PERFORMER "Samaris"
    INDEX 01 00:00:00
FILE "06 - Solhvorf I.flac" WAVE
  TRACK 06 AUDIO
    TITLE "Sólhvörf I"
    PERFORMER "Samaris"
    INDEX 01 00:00:00
FILE "07 - Solhvorf II.flac" WAVE
  TRACK 07 AUDIO
    TITLE "Sólhvörf II"
    PERFORMER "Samaris"
    INDEX 01 00:00:00
FILE "08 - Kaelan Mikla.flac" WAVE
  TRACK 08 AUDIO
    TITLE "Kælan Mikla"
    PERFORMER "Samaris"
    INDEX 01 00:00:00
FILE "09 - Hljoma pu (Muted Remix).flac" WAVE
  TRACK 09 AUDIO
    TITLE "Hljóma Þú (Muted Remix)"
    PERFORMER "Samaris"
    INDEX 01 00:00:00
FILE "10 - Viltu Vitrast (Futuregrapher Remix).flac" WAVE
  TRACK 10 AUDIO
    TITLE "Viltu Vitrast (Futuregrapher Remix)"
    PERFORMER "Samaris"
    INDEX 01 00:00:00
FILE "11 - Goda Tungl (DJ Arfi Remix).flac" WAVE
  TRACK 11 AUDIO
    TITLE "Góða Tungl (DJ Arfi Remix)"
    PERFORMER "Samaris"
    INDEX 01 00:00:00
FILE "12 - Stofnar Falla (Subminimal Remix).flac" WAVE
  TRACK 12 AUDIO
    TITLE "Stofnar Falla (Subminimal Remix)"
    PERFORMER "Samaris"
    INDEX 01 00:00:00
Samaris - Silkidrangar (2014)-- Год выпуска: 2014
Лейбл: One Little Indian
Каталог#: TPLP1227CD
Тир Рипа:tracks+.cue
Прoдолжительность: 00:53:37
Треклиcт:

01. Nott (05:12)
02. Eg Vildi Fegin Verda (04:42)
03. Lifsins olgusjor (05:12)
04. Tibra (04:00)
05. Brennur Stjarna (05:55)
06. Maninn Og Brodir Hans (04:46)
07. Pott Hann Rigni (05:04)
08. Hafid (05:26)
09. Hrafnar (07:43)
10. Vogguljod (05:37)

Отчет auCDtect Task manager&#58;

-----------------------
DON'T MODIFY THIS FILE
-----------------------
PERFORMER: auCDtect Task Manager, ver. 1.6.0 RC1 build 1.6.0.1
Copyright (c) 2008-2010 y-soft. All rights reserved
http://y-soft.org
ANALYZER: auCDtect: CD records authenticity detector, version 0.8.2
Copyright (c) 2004 Oleg Berngardt. All rights reserved.
Copyright (c) 2004 Alexander Djourik. All rights reserved.
FILE: 10 - Vogguljod.flac
  Size: 25969142 Hash: A4A68B58CB5A9884CA7E55F3A1CA5C99 Accuracy: -m0
  Conclusion: CDDA 99%
  Signature: C5CE407583982738F9A0550DB1B828212E30720A
FILE: 09 - Hrafnar.flac
  Size: 47851992 Hash: 9F9A810BCB8F60C166F9E6ED50D38369 Accuracy: -m0
  Conclusion: CDDA 100%
  Signature: F75989ED67A51C797A9D0641BC45189A2A5E7D33
FILE: 08 - Hafid.flac
  Size: 34778724 Hash: DE5DA412BE878D6A9C17A5E2C39AB876 Accuracy: -m0
  Conclusion: CDDA 100%
  Signature: C451FC1D6E7E67BB431ACF6B37B60AEA3700EBD8
FILE: 07 - Pott Hann Rigni.flac
  Size: 32738368 Hash: D75F589094D4925BF912AF83CD647426 Accuracy: -m0
  Conclusion: CDDA 100%
  Signature: 43BC7D6DDCEDBDF1E9C7EE3C3CB1A0A482B9DE44
FILE: 06 - Maninn Og Brodir Hans.flac
  Size: 26981271 Hash: 9B808AC99753144A8E699FD7D1E3DAB4 Accuracy: -m0
  Conclusion: CDDA 100%
  Signature: 8C5D92D71202C385C10C2DBB628125789541B1D1
FILE: 05 - Brennur Stjarna.flac
  Size: 35877876 Hash: 499AD3DF0361A99E590FD52BE065D70C Accuracy: -m0
  Conclusion: CDDA 100%
  Signature: 30AE710919FB87F5BDD8B92C5680ADD44A6A2446
FILE: 04 - Tíbra.flac
  Size: 25336079 Hash: BC3BDE9D7698F1267D958A90C2310EC1 Accuracy: -m0
  Conclusion: CDDA 100%
  Signature: AE71D8B164B32A10535E2C9B4C72811913174484
FILE: 03 - Lifsins Olgusjor.flac
  Size: 29645453 Hash: 8805ED5DE0CA41BF0865E8D00BE4493C Accuracy: -m0
  Conclusion: CDDA 100%
  Signature: 729C9926C2B6D47F03D4D0A76CFC5230AEA3CAA0
FILE: 02 - Eg Vildi Fegin Verda.flac
  Size: 29103801 Hash: 9C1623E40F7A63A3494B831BCCA5300A Accuracy: -m0
  Conclusion: CDDA 100%
  Signature: BB929D79F24FA6F559373C134C6A74E2BD39FE66
FILE: 01 - Nott.flac
  Size: 29766318 Hash: 1175B64AD8528EC78F5F5EF4C629BFB2 Accuracy: -m0
  Conclusion: CDDA 100%
  Signature: 280D2C863C3CEAC7D1FBC941C7BC685101B2EB25

Содержание индексной карты .Cue&#58;

PERFORMER "Samaris"
TITLE "Silkidrangar"
REM DATE 2014
REM DISCNUMBER 1
REM TOTALDISCS 1
REM GENRE "IDM"
FILE "01 - Nott.flac" WAVE
  TRACK 01 AUDIO
    PERFORMER "Samaris"
    TITLE "Nótt"
    INDEX 01 00:00:00
FILE "02 - Eg Vildi Fegin Verda.flac" WAVE
  TRACK 02 AUDIO
    PERFORMER "Samaris"
    TITLE "Ég Vildi Fegin Verða"
    INDEX 01 00:00:00
FILE "03 - Lifsins Olgusjor.flac" WAVE
  TRACK 03 AUDIO
    PERFORMER "Samaris"
    TITLE "Lífsins Ólgusjór"
    INDEX 01 00:00:00
FILE "04 - Tibra.flac" WAVE
  TRACK 04 AUDIO
    PERFORMER "Samaris"
    TITLE "Tíbrá"
    INDEX 01 00:00:00
FILE "05 - Brennur Stjarna.flac" WAVE
  TRACK 05 AUDIO
    PERFORMER "Samaris"
    TITLE "Brennur Stjarna"
    INDEX 01 00:00:00
FILE "06 - Maninn Og Brodir Hans.flac" WAVE
  TRACK 06 AUDIO
    PERFORMER "Samaris"
    TITLE "Máninn Og Bróðir Hans"
    INDEX 01 00:00:00
FILE "07 - Pott Hann Rigni.flac" WAVE
  TRACK 07 AUDIO
    PERFORMER "Samaris"
    TITLE "Þótt Hann Rigni"
    INDEX 01 00:00:00
FILE "08 - Hafid.flac" WAVE
  TRACK 08 AUDIO
    PERFORMER "Samaris"
    TITLE "Hafið"
    INDEX 01 00:00:00
FILE "09 - Hrafnar.flac" WAVE
  TRACK 09 AUDIO
    PERFORMER "Samaris"
    TITLE "Hrafnar"
    INDEX 01 00:00:00
FILE "10 - Vogguljod.flac" WAVE
  TRACK 10 AUDIO
    PERFORMER "Samaris"
    TITLE "Vögguljóð"
    INDEX 01 00:00:00
Samaris - Hljoma Pu (2011)-- Год выпуска: 2011
Лейбл: Not On Label
Каталог#: SAMARIS001
Тир Рипа:tracks+.cue+log
Прoдолжительность: 00:24:35
Треклиcт:

01. Hijoma Pu (03:50)
02. Viltu Vitrast (04:03)
03. Goda Tungl (04:15)
04. Hljoma Pu (Muted Remix) (04:45)
05. Viltu Vitrast (Opinberun Futuregrapher's) (03:39)
06. Goda Tungl (Dj Arfi Remix) (04:03)

Отчет EAC&#58;

Exact Audio Copy V1.0 beta 3 from 29. August 2011
EAC extraction logfile from 13. November 2012, 15:23
Samaris / Hljóma þú
Used drive  : TSSTcorpCDDVDW SH-222AB   Adapter: 0  ID: 0
Read mode               : Secure
Utilize accurate stream : Yes
Defeat audio cache      : Yes
Make use of C2 pointers : No
Read offset correction                      : 6
Overread into Lead-In and Lead-Out          : No
Fill up missing offset samples with silence : Yes
Delete leading and trailing silent blocks   : No
Null samples used in CRC calculations       : Yes
Used interface                              : Native Win32 interface for Win NT & 2000
Gap handling                                : Appended to previous track
Used output format              : User Defined Encoder
Selected bitrate                : 1024 kBit/s
Quality                         : High
Add ID3 tag                     : Yes
Command line compressor         : C:\Program Files (x86)\Exact Audio Copy\Flac\flac.exe
Additional command line options : -8 -V -T "ARTIST=%artist%" -T "TITLE=%title%" -T "ALBUM=%albumtitle%" -T "DATE=%year%" -T "TRACKNUMBER=%tracknr%" -T "GENRE=%genre%" -T "PERFORMER=%albuminterpret%" -T "COMPOSER=%composer%" %haslyrics%--tag-from-file=LYRICS="%lyricsfile%"%haslyrics% -T "ALBUMARTIST=%albumartist%" -T "DISCNUMBER=%cdnumber%" -T "TOTALDISCS=%totalcds%" -T "TOTALTRACKS=%numtracks%" -T "COMMENT=%comment%" %source% -o %dest%
TOC of the extracted CD
     Track |   Start  |  Length  | Start sector | End sector
    ---------------------------------------------------------
        1  |  0:00.00 |  3:50.31 |         0    |    17280
        2  |  3:50.31 |  4:03.02 |     17281    |    35507
        3  |  7:53.33 |  4:14.66 |     35508    |    54623
        4  | 12:08.24 |  4:45.33 |     54624    |    76031
        5  | 16:53.57 |  3:38.56 |     76032    |    92437
        6  | 20:32.38 |  4:02.64 |     92438    |   110651
Track  1
     Filename D:\EACRips\01 Hljóma þú.wav
     Pre-gap length  0:00:02.00
     Peak level 99.4 %
     Extraction speed 3.4 X
     Track quality 99.9 %
     Test CRC 39497B5F
     Copy CRC 39497B5F
     Track not present in AccurateRip database
     Copy OK
Track  2
     Filename D:\EACRips\02 Viltu vitrast.wav
     Peak level 99.4 %
     Extraction speed 3.6 X
     Track quality 99.9 %
     Test CRC E54B6E2D
     Copy CRC E54B6E2D
     Track not present in AccurateRip database
     Copy OK
Track  3
     Filename D:\EACRips\03 Góða tungl.wav
     Peak level 100.0 %
     Extraction speed 5.6 X
     Track quality 100.0 %
     Test CRC BE25163E
     Copy CRC BE25163E
     Track not present in AccurateRip database
     Copy OK
Track  4
     Filename D:\EACRips\04 Hljóma þú (Muted remix).wav
     Peak level 100.0 %
     Extraction speed 6.2 X
     Track quality 100.0 %
     Test CRC D0BF790C
     Copy CRC D0BF790C
     Track not present in AccurateRip database
     Copy OK
Track  5
     Filename D:\EACRips\05 Viltu vitrast (Opinberun Futuregrapher's).wav
     Peak level 100.0 %
     Extraction speed 6.3 X
     Track quality 100.0 %
     Test CRC 2073EC93
     Copy CRC 2073EC93
     Track not present in AccurateRip database
     Copy OK
Track  6
     Filename D:\EACRips\06 Góða tungl (DJ Arfi remix).wav
     Peak level 99.9 %
     Extraction speed 6.7 X
     Track quality 100.0 %
     Test CRC FAB8DE4A
     Copy CRC FAB8DE4A
     Track not present in AccurateRip database
     Copy OK
None of the tracks are present in the AccurateRip database
No errors occurred
End of status report
---- CUETools DB Plugin V2.1.3
[CTDB TOCID: MQxNFF1Not321MxgbkC.irF.7_s-] disk not present in database, Submit result: MQxNFF1Not321MxgbkC.irF.7_s- has been uploaded
==== Log checksum 1D743345AB7967DA0040B6C9B27A77CBBEF2938D2332F57106F8FD23933DCDF0 ====

Отчет auCDtect Task manager&#58;

-----------------------
DON'T MODIFY THIS FILE
-----------------------
PERFORMER: auCDtect Task Manager, ver. 1.6.0 RC1 build 1.6.0.1
Copyright (c) 2008-2010 y-soft. All rights reserved
http://y-soft.org
ANALYZER: auCDtect: CD records authenticity detector, version 0.8.2
Copyright (c) 2004 Oleg Berngardt. All rights reserved.
Copyright (c) 2004 Alexander Djourik. All rights reserved.
FILE: 06 - Goda Tungl (Dj Arfi Remix).flac
  Size: 21144766 Hash: 1D3685F613A3A849E10B92D8CDE870E8 Accuracy: -m0
  Conclusion: CDDA 100%
  Signature: C12EC1450C7BED76769176A9E349098757965A37
FILE: 05 - Viltu Vitrast (Opinberun Futuregrapher's).flac
  Size: 24323374 Hash: C5F761B634175DBAD6400E6A7B813C10 Accuracy: -m0
  Conclusion: CDDA 100%
  Signature: 0C90447149AD61C5A95837A210EE8C07FF1DF9A2
FILE: 04 - Hljoma pu (Muted Remix).flac
  Size: 30733559 Hash: 14E53FDE01875A9C7A6A90B65E41741C Accuracy: -m0
  Conclusion: CDDA 100%
  Signature: 0B2EC6A84A7F5C77DE1B8EF9C2A0C2A76C71BCBA
FILE: 03 - Goda Tungl.flac
  Size: 27038028 Hash: 043FDE3A92CC03DB4E193766DCF4DB0E Accuracy: -m0
  Conclusion: CDDA 100%
  Signature: 27A73AC77414A8AF7737D7B916AE65CAB606767A
FILE: 02 - Viltu Vitrast.flac
  Size: 20504422 Hash: 6D7B9909484FE6231A71A40B7A143C8F Accuracy: -m0
  Conclusion: CDDA 100%
  Signature: 6A1D1F19FB4306686288172F60A313A12652E011
FILE: 01 - Hljoma pu.flac
  Size: 21434114 Hash: 7E6F1EC8B8C207E98AD77C737956278F Accuracy: -m0
  Conclusion: CDDA 99%
  Signature: 32BCC9949903EBA47D21BCA401F889C60407A47E

Содержание индексной карты .Cue&#58;

PERFORMER "Samaris"
TITLE "Hljóma Þú"
REM DATE 2011
REM GENRE "Downtempo, Dub, Trip Hop, Dubstep"
FILE "01 - Hijoma Pu.flac" WAVE
  TRACK 01 AUDIO
    PERFORMER "Samaris"
    TITLE "Hljoma Þú"
    INDEX 01 00:00:00
FILE "02 - Viltu Vitrast.flac" WAVE
  TRACK 02 AUDIO
    PERFORMER "Samaris"
    TITLE "Viltu Vitrast"
    INDEX 01 00:00:00
FILE "03 - Goda Tungl.flac" WAVE
  TRACK 03 AUDIO
    PERFORMER "Samaris"
    TITLE "Góða Tungl"
    INDEX 01 00:00:00
FILE "04 - Hljoma Pu (Muted Remix).flac" WAVE
  TRACK 04 AUDIO
    PERFORMER "Samaris"
    TITLE "Hljoma Þú (Muted Remix)"
    INDEX 01 00:00:00
FILE "05 - Viltu Vitrast (Opinberun Futuregrapher's).flac" WAVE
  TRACK 05 AUDIO
    PERFORMER "Samaris"
    TITLE "Viltu Vitrast (Opinberun Futuregrapher's)"
    INDEX 01 00:00:00
FILE "06 - Goda Tungl (Dj Arfi Remix).flac" WAVE
  TRACK 06 AUDIO
    PERFORMER "Samaris"
    TITLE "Góða Tungl (Dj Arfi Remix)"
    INDEX 01 00:00:00
Samaris - Stofnar Falla (2012)-- Год выпуска: 2012
Лейбл: Not On Label
Каталог#: SAMARIS002
Тир Рипа:tracks+.cue+log
Прoдолжительность: 00:29:05
Треклиcт:

01. Stofnar Falla (04:54)
02. VogguDub (05:01)
03. Solhvorf I (03:42)
04. Solhvorf II (04:26)
05. Kaelan Mikla (04:08)
06. Stofnar Falla (Subminimal Remix) (06:54)

Отчет EAC&#58;

Exact Audio Copy V1.0 beta 3 from 29. August 2011
EAC extraction logfile from 13. November 2012, 15:08
Samaris / Stofnar Falla
Used drive  : TSSTcorpCDDVDW SH-222AB   Adapter: 0  ID: 0
Read mode               : Secure
Utilize accurate stream : Yes
Defeat audio cache      : Yes
Make use of C2 pointers : No
Read offset correction                      : 6
Overread into Lead-In and Lead-Out          : No
Fill up missing offset samples with silence : Yes
Delete leading and trailing silent blocks   : No
Null samples used in CRC calculations       : Yes
Used interface                              : Native Win32 interface for Win NT & 2000
Gap handling                                : Appended to previous track
Used output format              : User Defined Encoder
Selected bitrate                : 1024 kBit/s
Quality                         : High
Add ID3 tag                     : Yes
Command line compressor         : C:\Program Files (x86)\Exact Audio Copy\Flac\flac.exe
Additional command line options : -8 -V -T "ARTIST=%artist%" -T "TITLE=%title%" -T "ALBUM=%albumtitle%" -T "DATE=%year%" -T "TRACKNUMBER=%tracknr%" -T "GENRE=%genre%" -T "PERFORMER=%albuminterpret%" -T "COMPOSER=%composer%" %haslyrics%--tag-from-file=LYRICS="%lyricsfile%"%haslyrics% -T "ALBUMARTIST=%albumartist%" -T "DISCNUMBER=%cdnumber%" -T "TOTALDISCS=%totalcds%" -T "TOTALTRACKS=%numtracks%" -T "COMMENT=%comment%" %source% -o %dest%
TOC of the extracted CD
     Track |   Start  |  Length  | Start sector | End sector
    ---------------------------------------------------------
        1  |  0:00.00 |  4:53.48 |         0    |    22022
        2  |  4:53.48 |  5:01.23 |     22023    |    44620
        3  |  9:54.71 |  3:41.40 |     44621    |    61235
        4  | 13:36.36 |  4:25.61 |     61236    |    81171
        5  | 18:02.22 |  4:07.46 |     81172    |    99742
        6  | 22:09.68 |  6:54.09 |     99743    |   130801
Track  1
     Filename D:\EACRips\01 Stofnar falla.wav
     Pre-gap length  0:00:02.00
     Peak level 100.0 %
     Extraction speed 5.1 X
     Track quality 100.0 %
     Test CRC 611CEED1
     Copy CRC 611CEED1
     Track not present in AccurateRip database
     Copy OK
Track  2
     Filename D:\EACRips\02 VögguDub.wav
     Peak level 100.0 %
     Extraction speed 5.6 X
     Track quality 100.0 %
     Test CRC 75C3F5CE
     Copy CRC 75C3F5CE
     Track not present in AccurateRip database
     Copy OK
Track  3
     Filename D:\EACRips\03 Sólhvörf I.wav
     Peak level 100.0 %
     Extraction speed 5.7 X
     Track quality 100.0 %
     Test CRC EB881528
     Copy CRC EB881528
     Track not present in AccurateRip database
     Copy OK
Track  4
     Filename D:\EACRips\04 Sólhvörf II.wav
     Peak level 100.0 %
     Extraction speed 6.3 X
     Track quality 100.0 %
     Test CRC 523CFCC9
     Copy CRC 523CFCC9
     Track not present in AccurateRip database
     Copy OK
Track  5
     Filename D:\EACRips\05 Kælan mikla.wav
     Peak level 100.0 %
     Extraction speed 6.5 X
     Track quality 100.0 %
     Test CRC 24B134CF
     Copy CRC 24B134CF
     Track not present in AccurateRip database
     Copy OK
Track  6
     Filename D:\EACRips\06 Stofnar falla (Subminimal remix).wav
     Peak level 100.0 %
     Extraction speed 7.4 X
     Track quality 100.0 %
     Test CRC AAC62AB4
     Copy CRC AAC62AB4
     Track not present in AccurateRip database
     Copy OK
None of the tracks are present in the AccurateRip database
No errors occurred
End of status report
---- CUETools DB Plugin V2.1.3
[CTDB TOCID: RYvcmQXNZw.7SfivcQGaZPBuGOI-] disk not present in database, Submit result: RYvcmQXNZw.7SfivcQGaZPBuGOI- has been uploaded
==== Log checksum 309E984AD669F3E327DF6B94E1A56672BD66E2ED1E6CE9AD931D86CC6F7CEF04 ====

Отчет auCDtect Task manager&#58;

-----------------------
DON'T MODIFY THIS FILE
-----------------------
PERFORMER: auCDtect Task Manager, ver. 1.6.0 RC1 build 1.6.0.1
Copyright (c) 2008-2010 y-soft. All rights reserved
http://y-soft.org
ANALYZER: auCDtect: CD records authenticity detector, version 0.8.2
Copyright (c) 2004 Oleg Berngardt. All rights reserved.
Copyright (c) 2004 Alexander Djourik. All rights reserved.
FILE: 06 - Stofnar Falla (Subminimal Remix).flac
  Size: 40943659 Hash: F6FF50AE599D61E33EDA6FF56300468C Accuracy: -m0
  Conclusion: CDDA 100%
  Signature: 0034959E9D27EDB2707F2E5539F312F1302F5A41
FILE: 05 - Kaelan Mikla.flac
  Size: 24629461 Hash: 9361BA73D34482A1455FB472092C3FD4 Accuracy: -m0
  Conclusion: CDDA 100%
  Signature: B5D0BD470AD247EEB1CB6A21C1976A98FB786489
FILE: 04 - Solhvorf II.flac
  Size: 26664687 Hash: BEAA526E1E5114887C91BF5421A89DA8 Accuracy: -m0
  Conclusion: CDDA 100%
  Signature: AEBBF0A2985F11DDF866289F1CDBBBF783853498
FILE: 03 - Solhvorf I.flac
  Size: 20554411 Hash: 27F1A3EBD55C5D233FD60F4AD820BA3F Accuracy: -m0
  Conclusion: CDDA 100%
  Signature: 5DF72C603A5EF46795967DBCB6130AF302A9AC2A
FILE: 02 - VogguDub.flac
  Size: 26891418 Hash: C50FF2699F7ED606A2B946E566260F83 Accuracy: -m0
  Conclusion: CDDA 86%
  Signature: 4E8BA91E8E0FC47C22FAAD780F3D70B34347141D
FILE: 01 - Stofnar Falla.flac
  Size: 26824683 Hash: 5A264A2FC6A1CFC63CD52D74149DE846 Accuracy: -m0
  Conclusion: CDDA 87%
  Signature: F04389B3C37D80B2796E5BCD3B7C453E4A93B2CD

Содержание индексной карты .Cue&#58;

PERFORMER "Samaris"
TITLE "Stofnar Falla"
REM DATE 2012
REM GENRE "Downtempo, Trip Hop, Dub"
FILE "01 - Stofnar Falla.flac" WAVE
  TRACK 01 AUDIO
    PERFORMER "Samaris"
    TITLE "Stofnar Falla"
    INDEX 01 00:00:00
FILE "02 - VogguDub.flac" WAVE
  TRACK 02 AUDIO
    PERFORMER "Samaris"
    TITLE "VogguDub"
    INDEX 01 00:00:00
FILE "03 - Solhvorf I.flac" WAVE
  TRACK 03 AUDIO
    PERFORMER "Samaris"
    TITLE "Solhvorf I"
    INDEX 01 00:00:00
FILE "04 - Solhvorf II.flac" WAVE
  TRACK 04 AUDIO
    PERFORMER "Samaris"
    TITLE "Solhvorf II"
    INDEX 01 00:00:00
FILE "05 - Kaelan Mikla.flac" WAVE
  TRACK 05 AUDIO
    PERFORMER "Samaris"
    TITLE "Kælan Mikla"
    INDEX 01 00:00:00
FILE "06 - Stofnar Falla (Subminimal Remix).flac" WAVE
  TRACK 06 AUDIO
    PERFORMER "Samaris"
    TITLE "Stofnar Falla (Subminimal Remix)"
    INDEX 01 00:00:00
Описание:
Albums
2013 - Samaris
2014 - Silkidrangar
EPs
2011 - Hijoma Pu (EP)
2012 - Stofnar Falla (EP)
--- Время раздачи: До 5 сидов
Яндекс.Метрика
Рейтинг@Mail.ru