Peter Mergener - The Best Of (1996) [FLAC|Lossless]<Electronic, Berlin School>

 

Создавать темы 15-Дек-2014 23:05

-Peter Mergener - The Best Of (1996)- Жанр: Electronic,Berlin School
Продолжительность: 01:08:22
Год:1996
Кодек: FLAC
Битрейт: Lossless
Тип рипа: image+.cue
Треклист:
1.Passage in Time 5:36
2.Mechanical World 7:03
3.Take Off 6:29
4.On Wings 9:21
5.Lion's Dance 7:08
6.Crying Beast 5:34
7.The Eagle 5:25
8.Rainforest 5:38
9.Wildlife 7:02
10.A Little Bit of Something 8:50

Отчёт ЕАС&#58;

Exact Audio Copy V1.0 beta 3 from 29. August 2011
EAC extraction logfile from 14. December 2014, 13:50
Peter Mergener / The best of
Used drive  : PIONEER BD-RW   BDR-207M   Adapter: 2  ID: 0
Read mode               : Secure
Utilize accurate stream : Yes
Defeat audio cache      : Yes
Make use of C2 pointers : No
Read offset correction                      : 667
Overread into Lead-In and Lead-Out          : No
Fill up missing offset samples with silence : Yes
Delete leading and trailing silent blocks   : No
Null samples used in CRC calculations       : Yes
Used interface                              : Native Win32 interface for Win NT & 2000
Used output format              : User Defined Encoder
Selected bitrate                : 1024 kBit/s
Quality                         : High
Add ID3 tag                     : No
Command line compressor         : C:\Program Files (x86)\Exact Audio Copy\FLAC\FLAC.EXE
Additional command line options : -6 -V -T "ARTIST=%artist%" -T "TITLE=%title%" -T "ALBUM=%albumtitle%" -T "DATE=%year%" -T "TRACKNUMBER=%tracknr%" -T "GENRE=%genre%" -T "COMMENT=%comment%" -T "BAND=%albuminterpret%" -T "ALBUMARTIST=%albuminterpret%" -T "COMPOSER=%composer%" %haslyrics%--tag-from-file=LYRICS="%lyricsfile%"%haslyrics% -T "DISCNUMBER=%cdnumber%" -T "TOTALDISCS=%totalcds%" -T "TOTALTRACKS=%numtracks%" %hascover%--picture="%coverfile%"%hascover% %source% -o %dest%
TOC of the extracted CD
     Track |   Start  |  Length  | Start sector | End sector
    ---------------------------------------------------------
        1  |  0:00.00 |  5:37.00 |         0    |    25274
        2  |  5:37.00 |  7:03.07 |     25275    |    57006
        3  | 12:40.07 |  6:29.13 |     57007    |    86194
        4  | 19:09.20 |  9:23.27 |     86195    |   128446
        5  | 28:32.47 |  7:10.08 |    128447    |   160704
        6  | 35:42.55 |  5:36.70 |    160705    |   185974
        7  | 41:19.50 |  5:27.20 |    185975    |   210519
        8  | 46:46.70 |  5:40.57 |    210520    |   236076
        9  | 52:27.52 |  7:04.08 |    236077    |   267884
       10  | 59:31.60 |  8:50.40 |    267885    |   307674
Range status and errors
Selected range
     Filename C:\Users\Jean\Music\Peter Mergener - The best of.wav
     Peak level 100.0 %
     Extraction speed 7.7 X
     Range quality 100.0 %
     Test CRC C0E8FC88
     Copy CRC C0E8FC88
     Copy OK
No errors occurred
AccurateRip summary
Track  1  accurately ripped (confidence 1)  [183DD24B]  (AR v2)
Track  2  accurately ripped (confidence 1)  [4DAFE75D]  (AR v2)
Track  3  accurately ripped (confidence 1)  [81BE5B3B]  (AR v2)
Track  4  accurately ripped (confidence 1)  [55E29A6C]  (AR v2)
Track  5  accurately ripped (confidence 1)  [1DBE8D6C]  (AR v2)
Track  6  accurately ripped (confidence 1)  [CC6C2CC8]  (AR v2)
Track  7  accurately ripped (confidence 1)  [B5FD4392]  (AR v2)
Track  8  accurately ripped (confidence 1)  [F29D1191]  (AR v2)
Track  9  accurately ripped (confidence 1)  [8BF4AFB1]  (AR v2)
Track 10  accurately ripped (confidence 1)  [E3DF4266]  (AR v2)
All tracks accurately ripped
End of status report
==== Log checksum 803093FC6E703C0F90A654E99B276CE37B4D2C278E63EF0195538A4DD4520431 ====

Отчёт auCDtect Task manager&#58;

-----------------------
DON'T MODIFY THIS FILE
-----------------------
PERFORMER: auCDtect Task Manager, ver. 1.6.0 RC1 build 1.6.0.1
Copyright (c) 2008-2010 y-soft. All rights reserved
http://y-soft.org
ANALYZER: auCDtect: CD records authenticity detector, version 0.8.2
Copyright (c) 2004 Oleg Berngardt. All rights reserved.
Copyright (c) 2004 Alexander Djourik. All rights reserved.
FILE: Peter Mergener - The best of.flac
  Size: 429439072 Hash: CEEDA9793F2478D528E63A1E11105F84 Accuracy: -m0
  Conclusion: CDDA 100%
  Signature: 29C69A6C4F87846C48CE3BED802DC686E7D1D99A
Время раздачи: 7 дней
Яндекс.Метрика
Рейтинг@Mail.ru