Nebular Spool - 4 альбома (2007-2013) [FLAC|Lossless|WEB-DL]<Electronic, Ambient, Experimental>

 

Создавать темы 15-Дек-2014 23:05

-Nebular Spool - 4 альбома (2007-2013)- Год: 2007-2013
Жанр: Electronic, Ambient, Experimental
Продолжительность: 02:25:47
Кодек: FLAC
Битрейт: Lossless|WEB-DL
Список альбомов:
2007. Exposery
2008. Ruins
2009. Shul
2013. Strømløs-

Nebular Spool - Exposery (2007&#41;

Год: 2007
Жанр: Electronic, Ambient, Experimental
Продолжительность: 00:32:22
Кодек: FLAC
Битрейт: Lossless|WEB-DL
Трeклист:
01. Zombie Viking Amazone (2:45)
02. The Great Coffee Escape (2:50)
03. Hairstyles Of The Dead And Buried (2:27)
04. I Want But Replicant (2:15)
05. Heresy (2:46)
06. Swamp Women Time Ago (2:33)
07. Huzun Horizon (2:44)
08. Taboo (2:24)
09. Slow Motion Split Second Decision (2:47)
10. Tom Is Not My Friend (2:39)
11. Oceanseas Of Waterterrain (2:40)
12. Dementia (3:32)

Отчёт auCDtect Task manager&#58;

-----------------------
DON'T MODIFY THIS FILE
-----------------------
PERFORMER: auCDtect Task Manager, ver. 1.6.0 RC1 build 1.6.0.1
Copyright (c) 2008-2010 y-soft. All rights reserved
http://y-soft.org
ANALYZER: auCDtect: CD records authenticity detector, version 0.8.2
Copyright (c) 2004 Oleg Berngardt. All rights reserved.
Copyright (c) 2004 Alexander Djourik. All rights reserved.
FILE: Nebular Spool - Exposery - 12 Dementia.flac
  Size: 19749771 Hash: 96483F915B90E28286D2D6C652B221D4 Accuracy: -m0
  Conclusion: CDDA 99%
  Signature: 03548E61E9A464F9745B2B31EEB6FCE6B26D43CF
FILE: Nebular Spool - Exposery - 11 Oceanseas Of Waterterrain.flac
  Size: 16534761 Hash: 801D727F8B0882288CC3144742372D0C Accuracy: -m0
  Conclusion: CDDA 100%
  Signature: C937E0AC2B29CF749D1348DDF21B50B4FBAFC4F6
FILE: Nebular Spool - Exposery - 10 Tom Is Not My Friend.flac
  Size: 17941207 Hash: 392F17A78AD06694C33585C7EA2219C7 Accuracy: -m0
  Conclusion: CDDA 100%
  Signature: 14369744FEFD07702D8D27C64D6DFAC8F0A6A671
FILE: Nebular Spool - Exposery - 09 Slow Motion Split Second Decision.flac
  Size: 18193294 Hash: 78740A329968D8319FF9E0A54967B3F3 Accuracy: -m0
  Conclusion: CDDA 100%
  Signature: 78CBB7CE4AB5B2B80E7CA7370946CACCDC4B0FA0
FILE: Nebular Spool - Exposery - 08 Taboo.flac
  Size: 14618112 Hash: 46C3993B047EF6B01AEB0FBCB056E954 Accuracy: -m0
  Conclusion: CDDA 100%
  Signature: 91A908253FC4798739FB7050F2B9CC1D58941F5B
FILE: Nebular Spool - Exposery - 07 Huzun Horizon.flac
  Size: 15533207 Hash: 5E7AAD70AC9AB075A41708537C7F1344 Accuracy: -m0
  Conclusion: CDDA 43%
  Signature: 50F0FF3A7C84754B2C88D8879BD4DD12C5056805
FILE: Nebular Spool - Exposery - 06 Swamp Women Time Ago.flac
  Size: 15516651 Hash: 8E397955320AABEA9E165B9AE8C91011 Accuracy: -m0
  Conclusion: CDDA 76%
  Signature: F27956D710018FAE15E80C6944D3248FFDAFD3AA
FILE: Nebular Spool - Exposery - 05 Heresy.flac
  Size: 15608213 Hash: AC64308A8A92DCD61FFCD0A37E5D87F3 Accuracy: -m0
  Conclusion: CDDA 100%
  Signature: 74FEE7979CC9B7757AB4A55DE276D9AF336E074E
FILE: Nebular Spool - Exposery - 04 I Want But Replicant.flac
  Size: 15065958 Hash: 8C5D6C550EBF7D330A7B7B13CE155EBB Accuracy: -m0
  Conclusion: CDDA 100%
  Signature: 7AFC26ACE3D44FC33EE6F1C0A2EA57A0C318847B
FILE: Nebular Spool - Exposery - 03 Hairstyles Of The Dead And Buried.flac
  Size: 12262095 Hash: 2C47D3F77D3DF6DFB7D073D9B341CA66 Accuracy: -m0
  Conclusion: CDDA 100%
  Signature: 78567775218C770F1B65D94E0B0980DBFB2AD5E3
FILE: Nebular Spool - Exposery - 02 The Great Coffee Escape.flac
  Size: 20090445 Hash: A91133D7CA2271A8D218B0D87150BA68 Accuracy: -m0
  Conclusion: CDDA 100%
  Signature: A179A9B433143C14A01A56BC113BBD2D96459FB9
FILE: Nebular Spool - Exposery - 01 Zombie Viking Amazone.flac
  Size: 16800466 Hash: ADEE7DEE1A784650AFC46BA47110C0C8 Accuracy: -m0
  Conclusion: CDDA 100%
  Signature: 45E533FAB221A0BC5A8E8603BEB4BCD56FE609A4

Nebular Spool - Ruins (2008&#41;

Год: 2008
Жанр: Electronic, Ambient, Experimental
Продолжительность: 00:38:46
Кодек: FLAC
Битрейт: Lossless|WEB-DL
Трeклист:
01. Biomechanical Empress (1:30)
02. Perimeter Probe (3:12)
03. The River Ghost Incident (4:08)
04. Frozen Reflections (2:17)
05. Lypsic Strategem Decoded (4:48)
06. Antifaith (1:40)
07. The Can Opener Monologue (2:20)
08. Sleepless (1:51)
09. Texturons (3:13)
10. Abandoned Supermarket Muzak (5:02)
11. Campfire Story For One (2:58)
12. Ruins (5:46)

Отчёт auCDtect Task manager&#58;

-----------------------
DON'T MODIFY THIS FILE
-----------------------
PERFORMER: auCDtect Task Manager, ver. 1.6.0 RC1 build 1.6.0.1
Copyright (c) 2008-2010 y-soft. All rights reserved
http://y-soft.org
ANALYZER: auCDtect: CD records authenticity detector, version 0.8.2
Copyright (c) 2004 Oleg Berngardt. All rights reserved.
Copyright (c) 2004 Alexander Djourik. All rights reserved.
FILE: Nebular Spool - Ruins - 01 Biomechanical Empress.flac
  Size: 8231737 Hash: 9413FE4FD6CDC272B97B4F6BDE8549DC Accuracy: -m0
  Conclusion: CDDA 100%
  Signature: 9DCBBC60CCAD8F3608906D432186C384E5C58A67
FILE: Nebular Spool - Ruins - 02 Perimeter Probe.flac
  Size: 19071452 Hash: 8EA82488B96DD18A66FAB359CE18EBE0 Accuracy: -m0
  Conclusion: CDDA 100%
  Signature: 716762829A081E3BA55399C3A68C1B2C60750A87
FILE: Nebular Spool - Ruins - 03 The River Ghost Incident.flac
  Size: 24435723 Hash: E7B4D685BB6DB74242F08BBE8BF9CDF8 Accuracy: -m0
  Conclusion: CDDA 100%
  Signature: 853F3EB27617433F845635DB6C09D8D5C6C06E02
FILE: Nebular Spool - Ruins - 04 Frozen Reflections.flac
  Size: 11772640 Hash: 5D07F33B6FF60E24477FD9053A421BB7 Accuracy: -m0
  Conclusion: MPEG 80%
  Signature: 15234F597030F4429944D71E759463A542215A9B
FILE: Nebular Spool - Ruins - 05 Lypsic Strategem Decoded.flac
  Size: 26708715 Hash: 7AC987F76668F8F9EDF331A10E13CBDB Accuracy: -m0
  Conclusion: MPEG 80%
  Signature: 3BEEA7ACB802C00350F13600A330568ADFFAB71B
FILE: Nebular Spool - Ruins - 06 Antifaith.flac
  Size: 8930486 Hash: 15A7BC3576B97CA495B14EF0275382C1 Accuracy: -m0
  Conclusion: CDDA 99%
  Signature: 19435C998642901B4923153F9D3F5F7F49E89720
FILE: Nebular Spool - Ruins - 07 The Can Opener Monologue.flac
  Size: 15525666 Hash: C2A5276D52D8CA9DB4916D5A32D227FA Accuracy: -m0
  Conclusion: CDDA 99%
  Signature: 75BE93D73AA85AA4D4161F74B118EAA449AA760C
FILE: Nebular Spool - Ruins - 08 Sleepless.flac
  Size: 7641899 Hash: 8BA9C53C23B9359508766D01F54475A3 Accuracy: -m0
  Conclusion: MPEG 100%
  Signature: FA7BE3ABF1DA7FD635B6EF6ACBD1CC76F88FC938
FILE: Nebular Spool - Ruins - 09 Texturons.flac
  Size: 20283856 Hash: 6825E264DB4E6205E261170E20E9B0ED Accuracy: -m0
  Conclusion: CDDA 100%
  Signature: F06CF525E5FFBB45710E9988BE79143F57405F08
FILE: Nebular Spool - Ruins - 10 Abandoned Supermarket Muzak.flac
  Size: 26840227 Hash: 1122D98685F12743747EE1CCA97FE022 Accuracy: -m0
  Conclusion: CDDA 94%
  Signature: 00E0DCFF4BA0E906CD6B05E30C96957A5D9AD7CE
FILE: Nebular Spool - Ruins - 11 Campfire Story For One.flac
  Size: 14796910 Hash: A25070239456A65A2F2DA24CE14270DC Accuracy: -m0
  Conclusion: CDDA 62%
  Signature: 4DD58CB8D999DB9F24F899E1E94A202396089C9C
FILE: Nebular Spool - Ruins - 12 Ruins.flac
  Size: 27218811 Hash: 5B58568FF104A514D29CAF117B4453E5 Accuracy: -m0
  Conclusion: CDDA 87%
  Signature: ABF685FB3ADA53CE8298184BCF2FE65F3418FF0B

Nebular Spool - Shul (2009&#41;

Год: 2009
Жанр: Electronic, Ambient, Experimental
Продолжительность: 00:40:50
Кодек: FLAC
Битрейт: Lossless|WEB-DL
Трeклист:
01. A Plankton Affair (3:41)
02. Introvertigo (4:29)
03. Crepuscular Expectations (3:47)
04. The Shadow Fields (2:46)
05. Ill Consequences (5:23)
06. Sans Plural Pronouns (3:12)
07. Library Vixens (4:07)
08. Mechanical Company Orchestra (2:21)
09. The Manuscript (3:47)
10. Lost Night Ceremony (7:17)

Отчёт auCDtect Task manager&#58;

-----------------------
DON'T MODIFY THIS FILE
-----------------------
PERFORMER: auCDtect Task Manager, ver. 1.6.0 RC1 build 1.6.0.1
Copyright (c) 2008-2010 y-soft. All rights reserved
http://y-soft.org
ANALYZER: auCDtect: CD records authenticity detector, version 0.8.2
Copyright (c) 2004 Oleg Berngardt. All rights reserved.
Copyright (c) 2004 Alexander Djourik. All rights reserved.
FILE: Nebular Spool - Shul - 01 A Plankton Affair.flac
  Size: 24406294 Hash: 6579830E25D883E2200E264B3F5C4872 Accuracy: -m0
  Conclusion: CDDA 99%
  Signature: C919E7DBD42A3CEA0DE96C927D20C72FA2EF5BBC
FILE: Nebular Spool - Shul - 02 Introvertigo.flac
  Size: 24129023 Hash: E3BE21E00A4B36615CCE1A42E8AFE7B2 Accuracy: -m0
  Conclusion: CDDA 99%
  Signature: 1E679B9CA3909703F6A9816A4464B1C339209F43
FILE: Nebular Spool - Shul - 03 Crepuscular Expectations.flac
  Size: 20398821 Hash: 1AF01F38C5E0687CA3AFC27F600D56AC Accuracy: -m0
  Conclusion: CDDA 100%
  Signature: 86B624A9BB47DCA823DD8A74D7E35AC6F0070E1B
FILE: Nebular Spool - Shul - 04 The Shadow Fields.flac
  Size: 14709417 Hash: 4431699837865AE34A29868CEC1F7639 Accuracy: -m0
  Conclusion: CDDA 100%
  Signature: 5E69D7F2D529D53BF2E03DE6BBA503D19611A406
FILE: Nebular Spool - Shul - 05 Ill Consequences.flac
  Size: 34858865 Hash: 377BF30FB726DBC459E096BD3424D485 Accuracy: -m0
  Conclusion: CDDA 62%
  Signature: 33E349C548362668ED5CA319144768B6D5F31C46
FILE: Nebular Spool - Shul - 06 Sans Plural Pronouns.flac
  Size: 18278646 Hash: 8B6A2A8C0A3E5D1136E35456F30B86FC Accuracy: -m0
  Conclusion: CDDA 100%
  Signature: 076283992D4606BB854F2D543538F48243CBD700
FILE: Nebular Spool - Shul - 07 Library Vixens.flac
  Size: 24344143 Hash: 20A12D4F7B8493CF7B789B7C2B3A3201 Accuracy: -m0
  Conclusion: CDDA 100%
  Signature: 625E0F643E47944A979C185ACC55FDEA580A3A32
FILE: Nebular Spool - Shul - 08 Mechanical Company Orchestra.flac
  Size: 14536843 Hash: 7F0261F737773200ACDF34FCB5BC2DA7 Accuracy: -m0
  Conclusion: CDDA 100%
  Signature: B65CE7307CEE5B4A568362C6C91AFBCE72034B65
FILE: Nebular Spool - Shul - 09 The Manuscript.flac
  Size: 25494110 Hash: E13269C5FA842287AE2BBBC3223FB342 Accuracy: -m0
  Conclusion: CDDA 100%
  Signature: 50B9BB863F3372BA2A57FB2D02E4EDCFFE7A6C5B
FILE: Nebular Spool - Shul - 10 Lost Night Ceremony.flac
  Size: 41251344 Hash: C438574549DD3857D5FC67D5B377E0E2 Accuracy: -m0
  Conclusion: CDDA 100%
  Signature: 86866CFAF4E2DC46DAF758E677C7015AFA0BEF23

Nebular Spool - Strømløs (2013&#41;

Год: 2013
Жанр: Electronic, Ambient, Experimental
Продолжительность: 00:33:49
Кодек: FLAC
Битрейт: Lossless|WEB-DL
Трeклист:
01. Ættskjær (3:20)
02. Vanfall I (2:19)
03. Myrsky I (1:42)
04. Ordmos (3:13)
05. Drømfrø (2:58)
06. Hinvis I (1:32)
07. Myrsky II (2:34)
08. Vanfall II (2:17)
09. Rustgufs (1:12)
10. Gråtljå (4:03)
11. Hinvis II (2:23)
12. Myrsky III (2:04)
13. Endeve (4:15)

Отчёт MediaInfo&#58;

Общее
Полное имя                               : E:\music\Nebular Spool\Nebular Spool - 2013 - Strømløs\Nebular Spool - Strømløs - 01 Ættskjær.flac
Формат                                   : FLAC
Формат/Информация                        : Free Lossless Audio Codec
Размер файла                             : 33,8 Мбайт
Продолжительность                        : 3 м. 19 с.
Режим общего битрейта                    : Переменный
Общий поток                              : 1420 Кбит/сек
Альбом                                   : Strømløs
Альбом/Исполнитель                       : Nebular Spool
Трек                                     : Ættskjær
Трек/Положение                           : 1
Исполнитель                              : Nebular Spool
Дата записи                              : 2013
ISRC                                     : NOCPT1302010
Обложка                                  : Yes
Тип обложки                              : Cover (front)
MIME-тип обложки                         : image/jpeg
Примечание                               : Visit http://nebularspool.bandcamp.com
Аудио
Формат                                   : FLAC
Формат/Информация                        : Free Lossless Audio Codec
Продолжительность                        : 3 м. 19 с.
Вид битрейта                             : Переменный
Битрейт                                  : 1407 Кбит/сек
Каналы                                   : 2 канала
Частота                                  : 44,1 КГц
Битовая глубина                          : 24 бит
Размер потока                            : 33,5 Мбайт (99%)
Библиотека кодирования                   : libFLAC 1.2.1 (UTC 2007-09-17)
Общее
Полное имя                               : E:\music\Nebular Spool\Nebular Spool - 2013 - Strømløs\Nebular Spool - Strømløs - 02 Vanfall I.flac
Формат                                   : FLAC
Формат/Информация                        : Free Lossless Audio Codec
Размер файла                             : 23,1 Мбайт
Продолжительность                        : 2 м. 18 с.
Режим общего битрейта                    : Переменный
Общий поток                              : 1395 Кбит/сек
Альбом                                   : Strømløs
Альбом/Исполнитель                       : Nebular Spool
Трек                                     : Vanfall I
Трек/Положение                           : 2
Исполнитель                              : Nebular Spool
Дата записи                              : 2013
ISRC                                     : NOCPT1302020
Обложка                                  : Yes
Тип обложки                              : Cover (front)
MIME-тип обложки                         : image/jpeg
Примечание                               : Visit http://nebularspool.bandcamp.com
Аудио
Формат                                   : FLAC
Формат/Информация                        : Free Lossless Audio Codec
Продолжительность                        : 2 м. 18 с.
Вид битрейта                             : Переменный
Битрейт                                  : 1376 Кбит/сек
Каналы                                   : 2 канала
Частота                                  : 44,1 КГц
Битовая глубина                          : 24 бит
Размер потока                            : 22,7 Мбайт (99%)
Библиотека кодирования                   : libFLAC 1.2.1 (UTC 2007-09-17)
Общее
Полное имя                               : E:\music\Nebular Spool\Nebular Spool - 2013 - Strømløs\Nebular Spool - Strømløs - 03 Myrsky I.flac
Формат                                   : FLAC
Формат/Информация                        : Free Lossless Audio Codec
Размер файла                             : 16,8 Мбайт
Продолжительность                        : 1 м. 41 с.
Режим общего битрейта                    : Переменный
Общий поток                              : 1384 Кбит/сек
Альбом                                   : Strømløs
Альбом/Исполнитель                       : Nebular Spool
Трек                                     : Myrsky I
Трек/Положение                           : 3
Исполнитель                              : Nebular Spool
Дата записи                              : 2013
ISRC                                     : NOCPT1302030
Обложка                                  : Yes
Тип обложки                              : Cover (front)
MIME-тип обложки                         : image/jpeg
Примечание                               : Visit http://nebularspool.bandcamp.com
Аудио
Формат                                   : FLAC
Формат/Информация                        : Free Lossless Audio Codec
Продолжительность                        : 1 м. 41 с.
Вид битрейта                             : Переменный
Битрейт                                  : 1358 Кбит/сек
Каналы                                   : 2 канала
Частота                                  : 44,1 КГц
Битовая глубина                          : 24 бит
Размер потока                            : 16,4 Мбайт (98%)
Библиотека кодирования                   : libFLAC 1.2.1 (UTC 2007-09-17)
Общее
Полное имя                               : E:\music\Nebular Spool\Nebular Spool - 2013 - Strømløs\Nebular Spool - Strømløs - 04 Ordmos.flac
Формат                                   : FLAC
Формат/Информация                        : Free Lossless Audio Codec
Размер файла                             : 36,2 Мбайт
Продолжительность                        : 3 м. 13 с.
Режим общего битрейта                    : Переменный
Общий поток                              : 1570 Кбит/сек
Альбом                                   : Strømløs
Альбом/Исполнитель                       : Nebular Spool
Трек                                     : Ordmos
Трек/Положение                           : 4
Исполнитель                              : Nebular Spool
Дата записи                              : 2013
ISRC                                     : NOCPT1302040
Обложка                                  : Yes
Тип обложки                              : Cover (front)
MIME-тип обложки                         : image/jpeg
Примечание                               : Visit http://nebularspool.bandcamp.com
Аудио
Формат                                   : FLAC
Формат/Информация                        : Free Lossless Audio Codec
Продолжительность                        : 3 м. 13 с.
Вид битрейта                             : Переменный
Битрейт                                  : 1556 Кбит/сек
Каналы                                   : 2 канала
Частота                                  : 44,1 КГц
Битовая глубина                          : 24 бит
Размер потока                            : 35,8 Мбайт (99%)
Библиотека кодирования                   : libFLAC 1.2.1 (UTC 2007-09-17)
Общее
Полное имя                               : E:\music\Nebular Spool\Nebular Spool - 2013 - Strømløs\Nebular Spool - Strømløs - 05 Drømfrø.flac
Формат                                   : FLAC
Формат/Информация                        : Free Lossless Audio Codec
Размер файла                             : 29,9 Мбайт
Продолжительность                        : 2 м. 57 с.
Режим общего битрейта                    : Переменный
Общий поток                              : 1411 Кбит/сек
Альбом                                   : Strømløs
Альбом/Исполнитель                       : Nebular Spool
Трек                                     : Drømfrø
Трек/Положение                           : 5
Исполнитель                              : Nebular Spool
Дата записи                              : 2013
ISRC                                     : NOCPT1302050
Обложка                                  : Yes
Тип обложки                              : Cover (front)
MIME-тип обложки                         : image/jpeg
Примечание                               : Visit http://nebularspool.bandcamp.com
Аудио
Формат                                   : FLAC
Формат/Информация                        : Free Lossless Audio Codec
Продолжительность                        : 2 м. 57 с.
Вид битрейта                             : Переменный
Битрейт                                  : 1396 Кбит/сек
Каналы                                   : 2 канала
Частота                                  : 44,1 КГц
Битовая глубина                          : 24 бит
Размер потока                            : 29,6 Мбайт (99%)
Библиотека кодирования                   : libFLAC 1.2.1 (UTC 2007-09-17)
Общее
Полное имя                               : E:\music\Nebular Spool\Nebular Spool - 2013 - Strømløs\Nebular Spool - Strømløs - 06 Hinvis I.flac
Формат                                   : FLAC
Формат/Информация                        : Free Lossless Audio Codec
Размер файла                             : 15,6 Мбайт
Продолжительность                        : 1 м. 31 с.
Режим общего битрейта                    : Переменный
Общий поток                              : 1428 Кбит/сек
Альбом                                   : Strømløs
Альбом/Исполнитель                       : Nebular Spool
Трек                                     : Hinvis I
Трек/Положение                           : 6
Исполнитель                              : Nebular Spool
Дата записи                              : 2013
ISRC                                     : NOCPT1302060
Обложка                                  : Yes
Тип обложки                              : Cover (front)
MIME-тип обложки                         : image/jpeg
Примечание                               : Visit http://nebularspool.bandcamp.com
Аудио
Формат                                   : FLAC
Формат/Информация                        : Free Lossless Audio Codec
Продолжительность                        : 1 м. 31 с.
Вид битрейта                             : Переменный
Битрейт                                  : 1399 Кбит/сек
Каналы                                   : 2 канала
Частота                                  : 44,1 КГц
Битовая глубина                          : 24 бит
Размер потока                            : 15,3 Мбайт (98%)
Библиотека кодирования                   : libFLAC 1.2.1 (UTC 2007-09-17)
Общее
Полное имя                               : E:\music\Nebular Spool\Nebular Spool - 2013 - Strømløs\Nebular Spool - Strømløs - 07 Myrsky II.flac
Формат                                   : FLAC
Формат/Информация                        : Free Lossless Audio Codec
Размер файла                             : 28,6 Мбайт
Продолжительность                        : 2 м. 33 с.
Режим общего битрейта                    : Переменный
Общий поток                              : 1564 Кбит/сек
Альбом                                   : Strømløs
Альбом/Исполнитель                       : Nebular Spool
Трек                                     : Myrsky II
Трек/Положение                           : 7
Исполнитель                              : Nebular Spool
Дата записи                              : 2013
ISRC                                     : NOCPT1302070
Обложка                                  : Yes
Тип обложки                              : Cover (front)
MIME-тип обложки                         : image/jpeg
Примечание                               : Visit http://nebularspool.bandcamp.com
Аудио
Формат                                   : FLAC
Формат/Информация                        : Free Lossless Audio Codec
Продолжительность                        : 2 м. 33 с.
Вид битрейта                             : Переменный
Битрейт                                  : 1547 Кбит/сек
Каналы                                   : 2 канала
Частота                                  : 44,1 КГц
Битовая глубина                          : 24 бит
Размер потока                            : 28,3 Мбайт (99%)
Библиотека кодирования                   : libFLAC 1.2.1 (UTC 2007-09-17)
Общее
Полное имя                               : E:\music\Nebular Spool\Nebular Spool - 2013 - Strømløs\Nebular Spool - Strømløs - 08 Vanfall II.flac
Формат                                   : FLAC
Формат/Информация                        : Free Lossless Audio Codec
Размер файла                             : 23,2 Мбайт
Продолжительность                        : 2 м. 16 с.
Режим общего битрейта                    : Переменный
Общий поток                              : 1424 Кбит/сек
Альбом                                   : Strømløs
Альбом/Исполнитель                       : Nebular Spool
Трек                                     : Vanfall II
Трек/Положение                           : 8
Исполнитель                              : Nebular Spool
Дата записи                              : 2013
ISRC                                     : NOCPT1302080
Обложка                                  : Yes
Тип обложки                              : Cover (front)
MIME-тип обложки                         : image/jpeg
Примечание                               : Visit http://nebularspool.bandcamp.com
Аудио
Формат                                   : FLAC
Формат/Информация                        : Free Lossless Audio Codec
Продолжительность                        : 2 м. 16 с.
Вид битрейта                             : Переменный
Битрейт                                  : 1405 Кбит/сек
Каналы                                   : 2 канала
Частота                                  : 44,1 КГц
Битовая глубина                          : 24 бит
Размер потока                            : 22,9 Мбайт (99%)
Библиотека кодирования                   : libFLAC 1.2.1 (UTC 2007-09-17)
Общее
Полное имя                               : E:\music\Nebular Spool\Nebular Spool - 2013 - Strømløs\Nebular Spool - Strømløs - 09 Rustgufs.flac
Формат                                   : FLAC
Формат/Информация                        : Free Lossless Audio Codec
Размер файла                             : 13,7 Мбайт
Продолжительность                        : 1 м. 11 с.
Режим общего битрейта                    : Переменный
Общий поток                              : 1596 Кбит/сек
Альбом                                   : Strømløs
Альбом/Исполнитель                       : Nebular Spool
Трек                                     : Rustgufs
Трек/Положение                           : 9
Исполнитель                              : Nebular Spool
Дата записи                              : 2013
ISRC                                     : NOCPT1302090
Обложка                                  : Yes
Тип обложки                              : Cover (front)
MIME-тип обложки                         : image/jpeg
Примечание                               : Visit http://nebularspool.bandcamp.com
Аудио
Формат                                   : FLAC
Формат/Информация                        : Free Lossless Audio Codec
Продолжительность                        : 1 м. 11 с.
Вид битрейта                             : Переменный
Битрейт                                  : 1560 Кбит/сек
Каналы                                   : 2 канала
Частота                                  : 44,1 КГц
Битовая глубина                          : 24 бит
Размер потока                            : 13,4 Мбайт (98%)
Библиотека кодирования                   : libFLAC 1.2.1 (UTC 2007-09-17)
Общее
Полное имя                               : E:\music\Nebular Spool\Nebular Spool - 2013 - Strømløs\Nebular Spool - Strømløs - 10 Gråtljå.flac
Формат                                   : FLAC
Формат/Информация                        : Free Lossless Audio Codec
Размер файла                             : 40,5 Мбайт
Продолжительность                        : 4 м. 3 с.
Режим общего битрейта                    : Переменный
Общий поток                              : 1394 Кбит/сек
Альбом                                   : Strømløs
Альбом/Исполнитель                       : Nebular Spool
Трек                                     : Gråtljå
Трек/Положение                           : 10
Исполнитель                              : Nebular Spool
Дата записи                              : 2013
ISRC                                     : NOCPT1302100
Обложка                                  : Yes
Тип обложки                              : Cover (front)
MIME-тип обложки                         : image/jpeg
Примечание                               : Visit http://nebularspool.bandcamp.com
Аудио
Формат                                   : FLAC
Формат/Информация                        : Free Lossless Audio Codec
Продолжительность                        : 4 м. 3 с.
Вид битрейта                             : Переменный
Битрейт                                  : 1384 Кбит/сек
Каналы                                   : 2 канала
Частота                                  : 44,1 КГц
Битовая глубина                          : 24 бит
Размер потока                            : 40,1 Мбайт (99%)
Библиотека кодирования                   : libFLAC 1.2.1 (UTC 2007-09-17)
Общее
Полное имя                               : E:\music\Nebular Spool\Nebular Spool - 2013 - Strømløs\Nebular Spool - Strømløs - 11 Hinvis II.flac
Формат                                   : FLAC
Формат/Информация                        : Free Lossless Audio Codec
Размер файла                             : 24,7 Мбайт
Продолжительность                        : 2 м. 22 с.
Режим общего битрейта                    : Переменный
Общий поток                              : 1452 Кбит/сек
Альбом                                   : Strømløs
Альбом/Исполнитель                       : Nebular Spool
Трек                                     : Hinvis II
Трек/Положение                           : 11
Исполнитель                              : Nebular Spool
Дата записи                              : 2013
ISRC                                     : NOCPT1302110
Обложка                                  : Yes
Тип обложки                              : Cover (front)
MIME-тип обложки                         : image/jpeg
Примечание                               : Visit http://nebularspool.bandcamp.com
Аудио
Формат                                   : FLAC
Формат/Информация                        : Free Lossless Audio Codec
Продолжительность                        : 2 м. 22 с.
Вид битрейта                             : Переменный
Битрейт                                  : 1433 Кбит/сек
Каналы                                   : 2 канала
Частота                                  : 44,1 КГц
Битовая глубина                          : 24 бит
Размер потока                            : 24,4 Мбайт (99%)
Библиотека кодирования                   : libFLAC 1.2.1 (UTC 2007-09-17)
Общее
Полное имя                               : E:\music\Nebular Spool\Nebular Spool - 2013 - Strømløs\Nebular Spool - Strømløs - 12 Myrsky III.flac
Формат                                   : FLAC
Формат/Информация                        : Free Lossless Audio Codec
Размер файла                             : 20,7 Мбайт
Продолжительность                        : 2 м. 3 с.
Режим общего битрейта                    : Переменный
Общий поток                              : 1406 Кбит/сек
Альбом                                   : Strømløs
Альбом/Исполнитель                       : Nebular Spool
Трек                                     : Myrsky III
Трек/Положение                           : 12
Исполнитель                              : Nebular Spool
Дата записи                              : 2013
ISRC                                     : NOCPT1302120
Обложка                                  : Yes
Тип обложки                              : Cover (front)
MIME-тип обложки                         : image/jpeg
Примечание                               : Visit http://nebularspool.bandcamp.com
Аудио
Формат                                   : FLAC
Формат/Информация                        : Free Lossless Audio Codec
Продолжительность                        : 2 м. 3 с.
Вид битрейта                             : Переменный
Битрейт                                  : 1385 Кбит/сек
Каналы                                   : 2 канала
Частота                                  : 44,1 КГц
Битовая глубина                          : 24 бит
Размер потока                            : 20,4 Мбайт (98%)
Библиотека кодирования                   : libFLAC 1.2.1 (UTC 2007-09-17)
Общее
Полное имя                               : E:\music\Nebular Spool\Nebular Spool - 2013 - Strømløs\Nebular Spool - Strømløs - 13 Endeve.flac
Формат                                   : FLAC
Формат/Информация                        : Free Lossless Audio Codec
Размер файла                             : 43,7 Мбайт
Продолжительность                        : 4 м. 14 с.
Режим общего битрейта                    : Переменный
Общий поток                              : 1440 Кбит/сек
Альбом                                   : Strømløs
Альбом/Исполнитель                       : Nebular Spool
Трек                                     : Endeve
Трек/Положение                           : 13
Исполнитель                              : Nebular Spool
Дата записи                              : 2013
ISRC                                     : NOCPT1302130
Обложка                                  : Yes
Тип обложки                              : Cover (front)
MIME-тип обложки                         : image/jpeg
Примечание                               : Visit http://nebularspool.bandcamp.com
Аудио
Формат                                   : FLAC
Формат/Информация                        : Free Lossless Audio Codec
Продолжительность                        : 4 м. 14 с.
Вид битрейта                             : Переменный
Битрейт                                  : 1430 Кбит/сек
Каналы                                   : 2 канала
Частота                                  : 44,1 КГц
Битовая глубина                          : 24 бит
Размер потока                            : 43,4 Мбайт (99%)
Библиотека кодирования                   : libFLAC 1.2.1 (UTC 2007-09-17)
-
Яндекс.Метрика
Рейтинг@Mail.ru