[ Сегодня на трекере фрилич! Идет свободное скачивание без начисления Download ]

Software - Space Design (1993) [FLAC|Lossless]<Electronic, Berlin School>

 

Создавать темы 15-Дек-2014 23:05

-Software - Space Design (1993)- Год: 1993
Жанр: Electronic, Berlin School
Продолжительность: 00:57:33
Кодек: FLAC
Битрейт: Lossless
Тип битрейта: image+.cue
Треклист:
1.TimberWave Reflections 9:10
2.SunBeam 8:20
3.Rainbow 6:09
4.NightLight 8:02
5.WindFluteCromatics 8:20
6.SpaceDesign 7:27
7.Moonly Twigs 10:05

Дополнительная информация&#58;

http://www.discogs.com/artist/89241-Software

Отчёт ЕАС&#58;

Exact Audio Copy V1.0 beta 3 from 29. August 2011
EAC extraction logfile from 15. December 2014, 20:17
Software / Space Design
Used drive  : PIONEER BD-RW   BDR-207M   Adapter: 2  ID: 0
Read mode               : Secure
Utilize accurate stream : Yes
Defeat audio cache      : Yes
Make use of C2 pointers : No
Read offset correction                      : 667
Overread into Lead-In and Lead-Out          : No
Fill up missing offset samples with silence : Yes
Delete leading and trailing silent blocks   : No
Null samples used in CRC calculations       : Yes
Used interface                              : Native Win32 interface for Win NT & 2000
Used output format              : User Defined Encoder
Selected bitrate                : 1024 kBit/s
Quality                         : High
Add ID3 tag                     : No
Command line compressor         : C:\Program Files (x86)\Exact Audio Copy\FLAC\FLAC.EXE
Additional command line options : -6 -V -T "ARTIST=%artist%" -T "TITLE=%title%" -T "ALBUM=%albumtitle%" -T "DATE=%year%" -T "TRACKNUMBER=%tracknr%" -T "GENRE=%genre%" -T "COMMENT=%comment%" -T "BAND=%albuminterpret%" -T "ALBUMARTIST=%albuminterpret%" -T "COMPOSER=%composer%" %haslyrics%--tag-from-file=LYRICS="%lyricsfile%"%haslyrics% -T "DISCNUMBER=%cdnumber%" -T "TOTALDISCS=%totalcds%" -T "TOTALTRACKS=%numtracks%" %hascover%--picture="%coverfile%"%hascover% %source% -o %dest%
TOC of the extracted CD
     Track |   Start  |  Length  | Start sector | End sector
    ---------------------------------------------------------
        1  |  0:00.00 |  9:13.00 |         0    |    41474
        2  |  9:13.00 |  8:22.00 |     41475    |    79124
        3  | 17:35.00 |  6:10.00 |     79125    |   106874
        4  | 23:45.00 |  8:05.00 |    106875    |   143249
        5  | 31:50.00 |  8:22.00 |    143250    |   180899
        6  | 40:12.00 |  7:29.00 |    180900    |   214574
        7  | 47:41.00 | 10:05.00 |    214575    |   259949
Range status and errors
Selected range
     Filename C:\Users\Jean\Music\Software - Space Design.wav
     Peak level 95.2 %
     Extraction speed 4.3 X
     Range quality 100.0 %
     Test CRC D9E6C7AB
     Copy CRC D9E6C7AB
     Copy OK
No errors occurred
AccurateRip summary
Track  1  accurately ripped (confidence 3)  [0023AB17]  (AR v2)
Track  2  accurately ripped (confidence 3)  [4F6CE9E7]  (AR v2)
Track  3  accurately ripped (confidence 3)  [081731BE]  (AR v2)
Track  4  accurately ripped (confidence 3)  [CC2884D5]  (AR v2)
Track  5  accurately ripped (confidence 3)  [CD89FF9C]  (AR v2)
Track  6  accurately ripped (confidence 3)  [3A0BF2F6]  (AR v2)
Track  7  accurately ripped (confidence 3)  [DF918ABA]  (AR v2)
All tracks accurately ripped
End of status report
==== Log checksum 1B12434BF4CA6977FC6456A6C94054A0D609A5CE6FE35EBF7EC6F7BB98921BE2 ====

Отчёт auCDtect Task manager&#58;

-----------------------
DON'T MODIFY THIS FILE
-----------------------
PERFORMER: auCDtect Task Manager, ver. 1.6.0 RC1 build 1.6.0.1
Copyright (c) 2008-2010 y-soft. All rights reserved
http://y-soft.org
ANALYZER: auCDtect: CD records authenticity detector, version 0.8.2
Copyright (c) 2004 Oleg Berngardt. All rights reserved.
Copyright (c) 2004 Alexander Djourik. All rights reserved.
FILE: Software - Space Design.flac
  Size: 355962354 Hash: 32E69277C52390BAAA518D14334860EF Accuracy: -m0
  Conclusion: ???
  Signature: 846826AD2C645A0F000FAF0D0189E63BA39B0BB9
Время раздачи: 7 дней
Яндекс.Метрика
Рейтинг@Mail.ru